<?xml version="1.0" standalone="no"?>
<!DOCTYPE svg PUBLIC "-//W3C//DTD SVG 1.1//EN" "http://www.w3.org/Graphics/SVG/1.1/DTD/svg11.dtd" >
<svg xmlns="http://www.w3.org/2000/svg">
<metadata>
This is a custom SVG webfont generated by Font Squirrel.
Copyright   : Thank you for travelling with Fontourist com RWE
</metadata>
<defs>
<font id="webfontblVd01Xl" horiz-adv-x="1024" >
<font-face units-per-em="2048" ascent="1638" descent="-410" />
<missing-glyph horiz-adv-x="477" />
<glyph unicode=" "  horiz-adv-x="477" />
<glyph unicode="&#x09;" horiz-adv-x="477" />
<glyph unicode="&#xa0;" horiz-adv-x="477" />
<glyph unicode="!" horiz-adv-x="409" d="M20 -14q0 33 23 53t55 16l13 -12l8 -6q29 -20 8 -49q-2 -4 -6 -17q-20 -41 -49 -37q-52 17 -52 52zM168 358q-12 23 4 72q2 6 0 29h6q25 86 60 264q20 51 20 102q6 8 16 43q33 115 52 244q4 4 16 59q8 18 8 39q0 25 -14 54q43 14 61 14q35 0 43 -35q-6 -59 -35.5 -178 t-35.5 -180q-8 -6 -12.5 -32t-14.5 -36q-8 -39 -29 -102q-2 -4 -12 -68q-8 -41 -27 -65q-2 -31 -20 -78q-23 -57 -27 -78q-10 -16 -26 -57l-6 -4q-8 -8 -17 -9q-4 0 -10 2z" />
<glyph unicode="&#x22;" horiz-adv-x="239" d="M84 1196q0 8 5 12t7 6l4 3q10 8 31 4q12 -23 21 -58q10 -57 12 -61q2 -45 8 -88q0 -20 -10 -68l-37 4q6 25 0 41q-8 20 -6 33q-2 23 -17 63q0 8 -12 84q-6 15 -6 25zM190 1192v35q0 20 25 26q25 0 35 -18q-6 -49 -6 -84q0 -41 8 -64q0 -10 2 -28.5t2 -28.5q0 -39 -12 -63 l-37 -9q4 45 4 37q2 8 -4 15q2 33 -7.5 94t-9.5 88z" />
<glyph unicode="#" horiz-adv-x="983" d="M29 496q0 33 43 55q72 8 209 35q16 41 16 45t-2 8l-92 -18q-14 -6 -33 -7q-31 0 -68 23q-6 8 -6 20q0 14 13 35l8 17q20 -4 39 -4q27 0 80 14t79 14q12 18 16.5 68.5t10.5 66.5q-8 14 -8 31q0 25 16 57q12 16 31 17q8 0 49 -19q18 -23 19 -59q0 6 -15 -96q-6 -12 -18 -39 q-2 -4 -2 -6q0 -4 4 -4q74 14 96 43q37 164 141 192l25 -37q-27 -49 -62 -151q18 2 52 2q27 14 98 16q80 2 104 8q14 0 44 2t45 2q59 0 92 -32v-37q-88 2 -172 -10l-158 -23q-102 -16 -141 -43q-2 -20 -11 -57q55 8 142 0q121 -12 143 -13q43 -6 51 -12q20 -10 21 -45 q-45 -8 -191 -12q-113 -4 -168 -17q-8 -20 -8 -45q0 -27 16.5 -86t14.5 -92q-12 -18 -27 -18q-16 0 -43 26q-18 14 -26.5 54.5t-15.5 51.5t-7 32q0 8 2 23t2 24q0 16 -10 22q-14 -10 -74 -14q-45 -2 -51 -33q2 -6 -10 -82q-2 -8 -2 -16q0 -25 22 -39q6 -33 -35 -74 q-10 -2 -20 -2q-51 0 -59 53l24 174l-110 -22q-39 -10 -60 -10q-31 0 -59 20q-4 13 -4 23zM387 604l84 8q8 4 8 21v33q-49 0 -69 -7q-23 -18 -23 -55z" />
<glyph unicode="$" horiz-adv-x="856" d="M23 -162q0 29 14 68l24 65q25 63 62 189q-20 8 -57 61v45l43 -20q29 -12 45 -6q47 63 82 157q18 55 59 168q27 66 47 135q-82 47 -90 54q-47 35 -55 84q6 109 108 196l191 133q84 18 118 113q18 55 58 162q-2 10 -2 18q0 20 41 74q35 -2 61 -27q8 -20 8 -43 q0 -33 -26.5 -92t-30.5 -84q10 -8 22 -8q8 0 29 6t31 6q39 57 59 58q10 0 23 -4q23 -12 22 -29q0 -8 -7 -23.5t-7 -23.5q0 -14 18 -27q6 -14 7 -26q0 -25 -31 -46q-43 -29 -43 -55q-41 -33 -62 -90q-61 -111 -178 -350l-14 -10q106 -125 94 -244q-16 -4 -16 -16v-13l-11 -6 q-51 -127 -229 -184q-53 -109 -68 -338h-6q2 -66 -37 -123q0 72 11 412q-12 2 -27 2q-33 0 -80 -11q-20 -18 -38.5 -72.5t-37.5 -72.5q-2 -16 -15 -56t-13 -63q0 -16 6 -33q-16 -37 -25 -49q-18 -20 -49 -26q-28 28 -28 65zM272 264q12 -10 23 -10q8 0 29.5 10t35.5 8 q14 47 78 215q0 27 22.5 75t24.5 71q-20 14 -45 12q-25 -37 -69 -158q-60 -98 -99 -223zM289 850q0 -14 6 -31q63 -45 84 -43q72 141 115 277q-39 -16 -78 -49q-23 -20 -78 -60q-49 -63 -49 -94zM473 733q41 -27 51 -24q8 33 37 89t37 83q2 8 15.5 26.5t9.5 32.5l96 209 q-8 10 -23 6l-18 -6h-4q-45 -63 -142 -268q0 -14 -16 -39l-10 -11q-14 -20 -14 -40q0 -8 2 -17l-7 -6q-6 -6 -14 -4v-31zM475 338q6 -2 45 8q92 76 88 143q-6 18 -14 40t-25 30q-35 -63 -53 -106q-29 -64 -41 -115z" />
<glyph unicode="%" horiz-adv-x="1224" d="M2 678q-4 63 45 125q68 84 76 108l65 31q29 10 33 53q18 -4 27 4l4 7q10 14 24 16q143 49 191 43q4 -6 39 -33q25 -18 22 -45q14 -8 25 -39l4 -12q18 -39 4 -94q-6 -20 -35 -88q-12 -41 -82 -117q-137 -113 -266 -113q-39 0 -76 11q-77 39 -100 143zM109 700 q-18 -45 22 -75q16 -12 49 -9q16 4 49 11q61 12 93 41q141 131 141 239q0 20 -4 41q-10 23 -15 13q-18 -45 -49 -50q-31 8 -78 -18l-69 -45q-2 -20 -33 -39q-20 -8 -20 -39q-29 2 -39.5 -10t-26.5 -37q-4 -7 -20 -23zM158 4q0 27 18 62l31 57q51 90 172 217q150 154 190 203 l111 104q63 61 96 119v31q12 -4 21 -4q20 0 47 32q12 25 12 19q43 55 43 69q0 8 -5 15.5t-5 21.5v8q-2 10 -15 56q25 -29 60 -66q4 -2 8 -2q6 0 8 2q16 33 56 74q51 53 61 68q14 6 27 6q23 0 63 -41q8 -12 8 -25q0 -25 -28 -47q-100 -82 -271.5 -279.5t-271.5 -279.5 q-25 -45 -110 -116.5t-107 -121.5q-51 -39 -133 -188l22 -23q-29 -6 -37 -12l-10 -4q-12 -6 -22 -6q-20 0 -35 24q-4 15 -4 27zM645 96q0 25 14 47q70 115 95 144q61 74 139 90q20 23 45 4q12 -10 45 -19q10 -4 14 -6q12 -6 27 6q51 -20 61 -26q33 -18 41 -47q4 -63 2 -76 q0 -33 -14 -80q-23 -43 -84 -80l-102 -61q-8 4 -17 4q-10 0 -28 -12q-27 -18 -29 -19q-41 -10 -76 -10q-70 0 -106 45q-2 12 -14.5 45t-12.5 51zM754 80q0 -8 4 -14q12 -4 26 -5q27 0 70 17.5t61 19.5q8 18 35 27l27 8q74 72 65 123q-6 2 -38 20q-25 12 -52 -16 q-53 4 -92 -31q-14 -14 -61 -75l-37 -50q-8 -14 -8 -24z" />
<glyph unicode="&#x26;" horiz-adv-x="1122" d="M8 -82q25 37 58 117l145 221q74 115 125 233q53 68 53 168q0 39 -10 118t-10 118q0 43 26 166q12 55 45 98q31 0 56 -22q18 -25 39 -48q16 -43 16 -90q0 -53 -34 -156.5t-34 -156.5q0 -63 35 -121q20 -33 64 -166q35 -102 98 -153q45 23 96 78q25 27 49 40q74 82 111 117 q68 63 168 131l-90 -108q-18 -27 -29 -51q-18 -6 -84 -89l-82 -104q-10 -18 -43 -70q-6 -12 -24 -30q23 -12 45 -29q68 -49 118 -45q12 -8 21 -41q2 -6 10 -25q-12 -8 -65 -12q-119 49 -201 96q-141 -141 -297 -264q-98 -78 -211 -78q-70 0 -141 35q-43 21 -23 123z M125 -145q31 -12 57 -13q25 0 60 17q53 25 65 28q184 152 309 289q-43 49 -74.5 113.5t-60.5 103.5q-4 37 -6 43q-8 20 -35 19q-35 -18 -65 -103q-23 -10 -38 -51t-44 -49q-18 -66 -98 -189q-68 -104 -70 -208z" />
<glyph unicode="'" horiz-adv-x="94" d="M18 1221q-6 33 2 41l3 2q2 0 4 2l2 2q8 4 18 4q6 0 14 -2q12 -23 19 -58q6 -27 11 -58.5t9 -90.5v-29q-2 -18 -8 -37l-39 2q4 12 4 23q0 10 -4 18q-6 23 -6 33q-2 23 -14 64z" />
<glyph unicode="(" horiz-adv-x="610" d="M18 203q0 90 31 184q10 12 21.5 54t25.5 61q16 47 58 133q6 23 28 35l11 8q14 6 14 18q0 6 -2 15q92 170 178 297q14 -2 16 8l4 18q2 10 11 21q61 82 88 110q53 57 112 82q27 -6 33 -41l8 -16q-55 -41 -109 -120l-95 -134q-29 -39 -76 -129l-21 -33l-49 -72 q-186 -264 -186 -575q35 -100 43 -115q31 -55 92 -71h41q20 -2 49 -31l-78 -19q-37 -8 -67 3q-55 12 -142 135q-39 74 -39 174z" />
<glyph unicode=")" horiz-adv-x="483" d="M-248 -291q-6 35 12 49q31 25 33 31q27 41 92 115q2 20 27 39.5t23 36.5q10 18 45 40q23 18 22 39q27 16 56.5 64.5t43.5 62.5q123 164 195 385q25 76 25 181v92q-2 61 -2 92q-4 18 -25 76q-16 47 -16 75q-14 18 -37 97q-23 8 -27 28l-8 39q-4 10 -16 17q0 53 34 61 q63 -25 84 -119q23 -16 34 -64t28 -63q29 -160 28 -282q0 -354 -229 -619q-2 -23 -25.5 -43t-23.5 -39q-84 -88 -238 -282q-23 -6 -42 -31l-36 -46q-18 -22 -57 -32z" />
<glyph unicode="*" horiz-adv-x="714" d="M16 516q0 31 25 39q53 -6 154 6q-6 12 -33 62q-20 39 -21 63q0 31 29 59q45 6 63 -28q-2 -12 -2 -23q0 -37 48 -100q16 39 55 113v6l-10 20q31 0 45 29q25 45 45 45q18 0 43 -25q0 -12 -9.5 -32.5t-9.5 -30.5q-10 -8 -24.5 -36t-28.5 -38q-12 -18 -29 -55q4 -2 21 -2 l10 22l23 -16q86 14 145 14q23 0 41 -2q12 -6 16 -14q0 -6 -3 -18.5t-3 -18.5q-23 -12 -37 -12q-8 0 -14 4q-33 4 -86 -8q-61 -14 -86 -15q-10 -10 -25 -10q47 -27 129 -92q57 -45 70 -64q27 -33 27 -90q-51 43 -135 94q-119 72 -142 89q-41 -96 -41 -168q0 -12 -2 -33 q-2 -14 10 -35q-16 -8 -26 -8q-20 0 -29 26l-2 7q-2 2 -4 6v78q0 39 10 67q8 39 15 107q-55 -20 -119 -21q-47 0 -99 12q-4 15 -4 27z" />
<glyph unicode="+" horiz-adv-x="710" d="M113 524l12 33q6 16 27 25q53 -4 100 -4q63 0 110 8q2 18 17 114q4 29 43 115l53 -2q-23 -41 -18 -72q4 -16 4 -28q0 -16 -6 -35q2 -10 -4 -72q104 14 124 15q45 0 82 -15l-2 -51q-23 2 -45 6q-25 2 -41 -12q-61 0 -120 -12q-2 -47 -11 -140q4 -39 -3 -48t-40 -34 q-8 -2 -18 -2t-21 2q-12 33 -12 72q0 23 5 65t5 64q-80 -18 -135 -20q-10 0 -33.5 -4.5t-35.5 -4.5q-35 0 -37 37z" />
<glyph unicode="," horiz-adv-x="368" d="M4 -188q0 6 3 16t16 18l4 4q12 8 14 19q63 96 78 123q37 72 43 139q12 12 31 12q33 0 45 -32q-8 -10 -9 -19q2 -16 -12 -65q-43 -152 -174 -244q-6 6 -22.5 11.5t-16.5 17.5z" />
<glyph unicode="-" horiz-adv-x="677" d="M37 492q18 18 82 18q23 0 133 -6q102 -6 178 -4q31 0 86 -12.5t80 -12.5q29 -12 45 -61q-16 -51 -86 -47q-18 16 -45 20h-51q-16 6 -58.5 2t-66.5 10q-25 -2 -51 -2q-94 0 -162 21q-84 25 -84 74z" />
<glyph unicode="." horiz-adv-x="286" d="M39 45q0 57 47 57q16 -4 31.5 -9t19.5 -23v-29q-6 -59 -63 -66q-31 18 -31 31q-4 23 -4 39z" />
<glyph unicode="/" horiz-adv-x="417" d="M0 0q10 86 37 188q12 43 121 365q14 41 207 518q12 18 32 19q18 0 39 -15q14 -12 15 -55q0 -23 -5 -53q-10 -14 -25 -40t-13 -57q-55 -41 -52 -110q-23 -12 -41 -62q-25 -57 -34 -69q0 -29 -19 -41q-4 -39 -39 -114t-37 -118q-18 -27 -34 -80q-23 -68 -29 -81 q-27 -109 -62 -318q2 -23 -18 -47q-4 -8 -18 -33q-39 84 -25 203z" />
<glyph unicode="0" horiz-adv-x="847" d="M8 113q0 43 10 127q10 10 17 36q2 20 6 41q16 37 90 240q33 47 43 66q23 39 31 71q25 47 81 128t79 122q20 16 51 51q-10 2 -56 -30q-6 -12 -25.5 -21.5t-23.5 -15.5q-12 -8 -35 -43q-16 -27 -43 -27q-14 0 -32 6q51 117 96 148q113 111 313 121q39 -4 58 -93 q53 -84 61 -102q29 -59 27 -117q10 -8 9 -29.5t3 -25.5l-4 -201q-39 -143 -72 -196q-51 -139 -165.5 -271.5t-254.5 -193.5q-47 -12 -88 -13q-176 1 -176 222zM88 121q0 -47 8 -90q23 -14 23 -37q25 -18 45 -25q127 6 233 109q29 20 115 129q176 227 180 532q2 178 -100 275 q-14 0 -38 -16.5t-34 -18.5q-150 -147 -284 -399q-148 -279 -148 -459z" />
<glyph unicode="1" horiz-adv-x="370" d="M63 16q0 16 5.5 49t5.5 50q0 18 -4 32l36 261l72 409q45 248 60 412q4 47 28 84q10 -4 33 -10q10 -2 33 -21q-6 -49 -47 -301l-88 -479q-49 -283 -54 -482q20 -16 21 -63q-10 -20 -51 -20q-50 26 -50 79z" />
<glyph unicode="2" horiz-adv-x="862" d="M-18 23q0 59 73 182q20 12 37 55q70 82 172 232l166 237l94 125q16 8 32.5 38t27.5 38q14 20 37 59q8 18 45 82q31 51 30 84q0 14 -4 29q-18 14 -41 14t-57 -16q-47 -23 -57 -25q-14 -16 -70 -45q-45 -25 -61 -59q-63 0 -97 37q4 33 41 51l12 6q20 10 25 24 q29 18 98.5 48t100.5 55q98 2 127 -6q59 -16 94 -86q-14 -8 -10 -17l2 -6q4 -20 -6 -33q-8 -31 -43 -94q0 -29 -31 -60.5t-33 -47.5q-41 -53 -111 -170q-29 -4 -46 -39t-33 -43q-4 -10 -70 -99l-195 -274q-10 -23 -81 -125q-53 -76 -58 -137q51 -29 129 -29q72 0 160 23 q51 12 213 69q129 47 217 60q-20 -12 -96 -62q-33 -20 -64 -22q-57 -35 -102 -60q-63 -33 -109 -43q-106 -37 -252 -36q-53 0 -110 4q-96 29 -96 82z" />
<glyph unicode="3" horiz-adv-x="911" d="M10 248q10 4 21 4q23 0 47 -23q31 -31 41 -34q61 -27 139 -27q123 0 254 68q117 80 139 102q72 70 74 151q-16 31 -59 46q-6 2 -76 12q-45 18 -76 12l-12 -16q-31 18 -80 18q-57 -2 -74 4q-25 8 -74 60q31 49 111 108l133 92q43 29 127 95q70 57 100 122q4 14 5 23 q0 20 -19 22q-43 18 -102 19q-70 0 -156 -25q-68 -2 -129 -37q-14 4 -55 -12q-43 -16 -64 21q-2 10 -2 18q0 14 31 43q29 6 176 51q104 33 178 33q137 0 215 -78q18 -61 -14 -114l-57 -93q-31 -27 -90 -88l-121 -77q-70 -47 -111 -91q78 -6 221 -28q121 -35 154 -144 q0 -190 -285 -338q-27 -2 -69.5 -24.5t-63.5 -26.5q-41 -12 -90 -12q-84 0 -176 33q-86 47 -111 131z" />
<glyph unicode="4" horiz-adv-x="694" d="M33 692q0 98 24 195q12 47 66 151q16 53 72 92q47 -4 55 -32q6 -39 -55 -101q-8 -10 -9 -34q-23 -16 -34 -60q-14 -49 -25 -63l-18 -138q-12 -8 -5 -22q10 -18 11 -31l12 -84q14 -74 109 -73q59 0 137 47l123 84q39 92 106 288q16 45 53 162q8 6 19 31q8 16 28 22 q23 0 43 -53l-92 -264q-4 -12 -18 -45q18 -8 18 -25q0 -10 -7 -29.5t-7 -27.5q-88 -96 -147 -342q-12 -4 -17 -35q0 -12 -8 -20q-23 -37 -35 -109q-8 -51 -22 -117q0 -43 -9 -122q-25 4 -73 45q0 18 41 235l59 205q20 51 21 70q-33 -25 -107 -58q-45 -35 -106 -35 q-47 0 -91 23q-112 80 -112 270z" />
<glyph unicode="5" horiz-adv-x="772" d="M-57 555q35 72 110 190q86 131 115 187q-4 10 -4 24q0 59 49 60q8 0 16 -2q74 16 203 30q147 14 205 25q49 -2 98 -6q59 -6 92 -27v-47q-12 0 -118 -8q-59 -4 -109 -2l-10 -8q-76 -4 -172 -27q-133 -31 -166 -35q-18 -37 -65.5 -106.5t-65.5 -106.5l-58 -84q6 -2 17 -2 q18 0 60 10.5t62.5 13.5t59.5 3q104 0 187 -49q18 -31 57 -41q33 -66 61 -96q12 -39 13 -76q0 -57 -45 -131q-12 -18 -84 -115q-10 0 -19 -8l-6 -6q-20 -20 -35 -27q-37 -39 -102 -39q-25 0 -92 10q-6 12 -37 47q-18 20 -21 46h-10q6 23 14 41q14 29 35 0q12 -41 68 -58 q80 8 150.5 64.5t99.5 132.5q4 23 4 43q0 59 -39 96q-76 72 -201 72q-78 0 -147 -29q-16 2 -47 -2t-43 -4q-53 0 -80 47z" />
<glyph unicode="6" horiz-adv-x="829" d="M66 233q0 51 16 121l29 121q25 70 92 199q-4 27 18 33q119 193 158 243q92 125 207 203q8 2 14 2q49 0 49 -39v-20l-133 -121q-72 -68 -104 -144q-12 -2 -29 -36q-6 -12 -14 -21q-29 -25 -60 -84q-31 -68 -49 -88q0 -10 -12 -32.5t-10 -37.5q-20 -18 -39 -66t-31 -69 q-2 -37 -12 -112q4 2 14 12l6 6q6 8 92 76q45 35 88 45q84 43 183 43q96 0 157 -43q80 -74 80 -150q0 -27 -10 -53q-20 -86 -135 -147q-168 -119 -318 -119q-76 0 -135 33q-33 18 -55 12q0 25 -29 76q-27 45 -18 80q-10 38 -10 77zM170 168q-8 -51 35 -98q53 -29 133 -29 q57 0 94 14q51 18 170 92q102 84 94 140q-29 66 -82 90q-37 10 -75 10q-98 0 -199 -55l-96 -74q-56 -45 -74 -90z" />
<glyph unicode="7" horiz-adv-x="565" d="M-35 1092q-8 61 55 61h27q20 -2 29 -2q25 0 37 8l223 25q8 -10 31.5 -9t29.5 -6q92 -20 121 -34q88 -43 88 -154q0 -82 -45 -178q0 -12 -10 -37q-94 -176 -158 -340q-16 -25 -37 -72l-33 -74q-9 -19 -61 -141q-35 -86 -31 -145q20 -14 29 -37q-10 -27 -37 -27 q-10 0 -30 4q-47 27 -48 93q0 12 11 86q23 63 85 189t85 185q41 98 65 146q47 84 76 168q37 74 37 106h4q8 20 20 68q10 37 -12 57q-55 51 -174 51h-25q-23 -2 -41 -2h-63q-31 4 -84 -10q-59 -14 -84 -14q-47 0 -80 35z" />
<glyph unicode="8" horiz-adv-x="690" d="M12 178q0 23 8 45q8 49 52 107l80 92q35 25 122 102q20 16 66 60q-137 147 -127 262q51 174 223 291q109 74 174 73q45 0 82 -28q27 -20 8 -70q-33 -43 -84 -33q-8 23 -22 23q-6 -2 -31 -12q-8 -6 -22 -7q-14 -10 -80 -49q-47 -27 -70 -63h-8q-20 -25 -57 -78 q-31 -45 -31 -88q0 -25 12 -49q45 -90 96 -127q178 117 242 215q-10 31 -59 71q-20 18 -33 33q25 35 61 35q10 0 21 -4q72 -14 90 -113q6 -98 -88 -184l-160 -121q-4 -20 15 -55q29 -41 73 -127q6 -29 6 -62q0 -135 -67 -221q-61 -76 -195 -133q-164 0 -223 74 q-74 92 -74 141zM96 147q33 -57 109 -96q111 -8 149 33q59 31 97 84q41 80 41 149q0 49 -23 84q-20 16 -39 56q-8 16 -31 43q-188 -145 -286 -281q0 -18 -17 -55v-17z" />
<glyph unicode="9" horiz-adv-x="774" d="M20 709q-18 188 181 399q55 45 100 70l139 73q106 18 142 19q68 0 114 -33l37 -37q20 -23 23 -43q39 -53 39 -143q0 -20 -2 -58t-2 -59q-8 -18 -19 -96q-8 -18 -47 -123l-107 -225q-10 -23 -36 -60q-47 -84 -193 -309q-23 -33 -70 -125q-12 -25 -32 -25q-14 0 -31 13 q-6 16 -6 30q0 29 30.5 73t36.5 63q29 29 70 97.5t59 94.5q-2 14 7 23l18 12q2 6 0 10q88 156 168 314q43 86 66 225q-57 -109 -162 -180q-14 -43 -86 -70q-80 -88 -221 -88q-25 0 -48 2q-123 43 -168 156zM98 743q0 -25 6 -51q20 -12 58 -41q29 -6 57 -6q76 0 158 51 l137 103q8 4 4 18q27 12 45 37q23 35 33 43q18 16 27 51q2 27 6 58q2 16 14 51q55 0 70 -10q0 16 -13.5 36.5t-31.5 67.5q-33 27 -86 27q-6 0 -115 -15q-12 -4 -68 -30q-39 -18 -61 -43q-20 -6 -51 -33t-45 -33q-68 -82 -97 -131q-47 -80 -47 -150z" />
<glyph unicode=":" horiz-adv-x="247" d="M16 342q41 -8 43 -8q27 -8 35 -23q25 -31 4 -59q-23 -33 -61 -2q-21 16 -21 92zM27 664q18 39 18 47q-4 18 -10 34q-2 18 18 31q14 4 60 -12q4 -2 26 2q-8 -23 -8 -33q0 -43 -22 -53q-10 -4 -29 0l-6 4q-8 3 -47 -20z" />
<glyph unicode=";" horiz-adv-x="452" d="M12 -33q102 109 178 246q16 14 35 14q45 0 45 -41q0 -6 -5 -19t-5 -24l-82 -73q-14 -23 -59 -64q-2 -12 -10 -16l-17 -8v-19q-16 4 -31 -6q-24 -17 -49 10zM207 614q-2 10 8 66q43 6 80 -41q4 -10 4 -18q0 -33 -39 -50q-39 8 -53 43z" />
<glyph unicode="&#x3c;" horiz-adv-x="868" d="M-8 604q0 68 43 96q29 18 99.5 33t98.5 33q137 25 351 39q43 2 80 2q133 0 139 -41q4 -20 4 -35q0 -18 -8 -20q-27 14 -54 14q-18 0 -54 -10t-54 -10q-14 0 -29 4q-14 -6 -50 -5t-48 -8q-236 6 -399 -78q154 -147 436 -282q66 -29 233 -109q53 -27 54 -49q0 -27 -72 -45 q-16 6 -76 33q-66 29 -299 151l-41 11q-2 18 -27 24l-16 8q-41 39 -160 115q-106 68 -151 129z" />
<glyph unicode="=" horiz-adv-x="739" d="M55 559q2 8 4 31q0 16 25 28q104 -14 162 -14q70 0 123 17q55 4 110 10q61 0 109 -21l12 -53q-16 4 -55 10q-18 2 -35 -10q-61 6 -172 -12q-119 -20 -172 -19q20 -4 -62 -4q-37 0 -49 37zM117 373q0 10 4 20q43 25 108 37q92 16 111 23q63 6 168 14q33 2 119 -14l-6 -52 q-18 4 -33 5q-14 0 -46 -10.5t-55 -8.5q-43 -4 -125 -29q-53 -10 -159 -26q-27 -8 -45 -8q-14 0 -19 5l-10 13l-4 4q-8 13 -8 27z" />
<glyph unicode="&#x3e;" d="M143 178q0 23 47 49l207 111q252 137 389 287q-147 84 -356 77q-10 8 -42 7.5t-44 5.5q-12 -4 -27 -4q-16 0 -47.5 10t-49 10t-52.5 23q-4 -8 -8 -11q-4 0 -13 23l21 -12q2 6 2 20q6 43 127 41q31 0 70 -2q188 -14 309 -41q25 -16 88 -31.5t88 -33.5q39 -31 39 -99 q-37 -57 -136.5 -128.5t-140.5 -117.5q-10 -6 -14 -8q-23 -6 -25 -24l-34 -11q-176 -106 -267 -153q-8 -6 -67 -33q-64 18 -64 45z" />
<glyph unicode="?" horiz-adv-x="747" d="M10 1114q2 35 35 49l59 17q35 31 80 30q131 35 248 35q242 0 359 -153l12 -35q-12 -80 -119 -158l-49 -49q-31 -27 -62 -35q-27 -29 -137 -100q-16 -14 -51 -39q-10 -6 -131 -88q-80 -55 -113 -111q4 -10 15 -28q14 -8 135 -25q23 -4 76 -35l-134 -10q-117 0 -157 63 q-14 23 -6 70q37 59 135 121q111 68 145 106q14 10 109 72q27 12 80 49l76 53q42 29 73 72q23 23 47 64q-23 92 -168 112q-115 16 -137 17q-35 0 -90 -7l-92 -10q-20 -12 -49 -16q-53 -20 -68 -27q-39 -18 -61 -41q-17 2 -60 37zM115 8q0 14 12 25q4 2 14 16q53 -2 113 10 q8 -10 8 -20q0 -14 -18 -33l-6 -16q-10 4 -15 4q-6 0 -20 -10q-25 -23 -39 -23t-25 25h-2q-22 -1 -22 22z" />
<glyph unicode="@" horiz-adv-x="1087" d="M18 180q8 227 150 463q92 154 344 336q35 10 72 10q45 0 116 -18q86 -20 115 -25q246 -115 289 -303q8 -184 -90 -373q-94 -180 -248 -293q-57 -43 -109 -43q-41 0 -67 33q-43 51 -64 51q-14 0 -28 -6q-39 -39 -95 -39q-39 0 -73 21q-35 51 -35 125q0 45 14 82 q88 152 289 317q29 41 96 47h113q55 -29 55 -90t-100 -229q-35 -59 -88 -101q2 -14 -5 -38.5t-7 -34.5q0 -16 12 -31q82 25 176 147q170 223 170 377q0 80 -39 152q-137 158 -383 180q-113 -35 -211 -143q-14 -14 -156 -205q-74 -98 -108 -320q-10 -176 127 -274 q14 -47 39 -55q12 -4 40.5 -33t53.5 -27q78 -53 195 -71l206 -29l351 24q31 14 110 29q72 14 109 35h94q-35 -33 -55 -39q-39 -12 -56 -27q-244 -88 -516 -88q-319 0 -559 121l-166 168q-82 102 -78 217zM401 109q0 -20 5 -41q35 -2 75 20l68 41q-2 10 -2 18q0 14 17.5 39 t17.5 43q39 39 49 39q14 29 59 74t60 74q10 16 10 28q0 14 -19 19q-18 2 -59 -8q-106 -78 -199 -168q-82 -80 -82 -178z" />
<glyph unicode="A" horiz-adv-x="851" d="M-41 10q2 109 84 238q53 86 94 168l-47 16q-25 14 -22 41q-2 20 47 55q12 4 24 4q10 0 34 -10t36 -6q29 45 90 133q37 39 80 103l72 106q10 25 40.5 69t40.5 68q10 6 18.5 29t12.5 29q-4 6 6 39q2 4 4 20q18 4 25 25q10 35 37 37q7 1 14 0q32 0 58 -15q4 -33 4 -82 q0 -47 -4 -112q4 -27 4 -54q0 -68 -25 -125q0 -29 -6 -84q4 -25 14 -73q16 0 49 6t50 6q41 0 65 -27q-27 -37 -53 -49h-27q-6 -2 -12 -14q-8 1 -15 1q-29 0 -49 -20q-2 -20 -2 -43q0 -63 23 -143l39 -141q16 -27 82 -168q8 -8 8 -19q0 -20 -45 -47q-45 18 -90 123 q-16 41 -64 148q-14 68 -30 98q-4 55 -23 162q-88 -16 -258 -74q-31 -2 -98 -18q-27 -6 -35 -37q-82 -88 -137 -256q23 25 80 73l-48 -127q-14 -2 -20 -24q-14 -57 -92 -57q-16 0 -29 4q2 6 2 10q0 10 -6 14zM326 530q70 23 209 52q27 2 59 24q-5 40 -6 101q0 31 2 67 q3 67 3 108q0 21 -1 36q-94 -126 -266 -388z" />
<glyph unicode="B" horiz-adv-x="839" d="M-31 84q20 12 39 4q14 -6 19 -4q31 139 100 387q4 12 -17.5 36.5t-21.5 33.5q0 14 21 24q47 25 61 99q20 98 33 122q0 4 2 9v6l4 8q2 10 -6 22q23 27 34 77t19 81q25 31 57 31q8 0 17 -4q25 -18 24 -43q0 -18 -18.5 -55t-18.5 -56q-14 -55 -45 -164q2 -10 -6 -25.5 t-8 -19.5q246 123 373 262q25 18 31 58q-53 45 -162 49q-57 0 -174 2q-18 2 -60 -4q-47 -8 -63 -8q-53 0 -78 39q-4 4 -12 18q-2 6 -2 10q0 12 11 22.5t46 14.5l22 6q4 -16 21 -16q6 0 22.5 6t26.5 6q20 0 41 -12h211q127 -8 199 -53q47 -55 49 -101q-20 -31 -70 -92 q-2 -14 -31 -33q-25 -29 -206 -168q-25 -6 -60 -28l-55 -35q-2 0 -6 -4l-2 -2h14q223 0 336 -125q33 -49 33 -105q0 -33 -15 -67q-12 -6 -22 -27.5t-23 -27.5l-12 -31q-18 -25 -62 -63t-63 -58q-178 -125 -346 -125q-68 0 -127 23q-25 20 -50.5 44.5t-23.5 55.5zM125 72 q0 -18 4 -33q11 -3 26 -3q19 0 44 5q66 12 69 12q154 76 213 121q117 86 142 193q-50 112 -158 111q-11 0 -23 -1q-23 16 -63 17h-76q-23 -2 -67 -13l8 -10q-12 -10 -18.5 -12t-8.5 -2q-8 -51 -41 -150q-4 -35 -27.5 -116.5t-23.5 -118.5z" />
<glyph unicode="C" horiz-adv-x="870" d="M16 236q0 57 27 145l41 135l115 209q68 123 143 195q178 242 336 317q29 4 53 4q57 0 88 -27v-36q-2 -18 -18 -33q-6 -2 -66 -4q-43 -2 -61 -25l-83 -53q-54 -35 -75 -74q-297 -297 -395 -719v-15q0 -104 51 -169q57 -76 168 -76q31 0 91.5 9.5t84.5 11.5q59 16 172 67 q12 2 45 21.5t53 15.5q8 10 25 10h41l-2 -22q-41 6 -47 -2q-12 -18 -25 -21l-80 -59q-53 -33 -90 -35q-59 -41 -143 -51q-49 -4 -150 -14q-106 12 -184 69q-84 63 -104 162q-11 29 -11 64z" />
<glyph unicode="D" horiz-adv-x="1026" d="M-74 8q12 -2 26 -2q48 0 122 23q4 14 -4 39q-10 33 -11 38q29 242 93 512q18 35 32 99q16 76 27 100q-2 10 25 94q3 11 3 20q0 27 -34 30q-61 68 -62 88q0 8 2 16q14 16 43 16q18 0 43 -6q4 -2 11 -2h2l12 12q18 18 23 21q14 10 32 12q41 -6 68 -74q-2 -6 -2 -12 q0 -8 8 -10h18q4 0 19 4q25 -18 94 -25q258 -51 393 -204q70 -78 70 -181q0 -78 -45 -147q-27 -53 -164 -201q-16 -6 -44 -37.5t-52 -33.5q-74 -66 -248 -134q-12 -27 -45 -29.5t-43 -13.5l-152 -36q-96 -23 -163 -23q-51 0 -91 12q-8 5 -8 19q0 7 2 16zM150 92 q12 -29 10 -43h4q74 0 190 53l185 86q23 23 67 52q53 33 70 47q199 162 221 338q-10 14 -14 45q-2 14 -13 43q-51 78 -245 159l-140 29q-66 13 -118 13q-13 0 -25 -1q-14 -78 -55 -217q-45 -150 -60 -217q-16 -33 -16 -53q0 -8 2 -14q-12 -47 -27 -162q-13 -103 -36 -158z " />
<glyph unicode="E" horiz-adv-x="808" d="M27 119q-8 58 -8 107q0 83 22 139q20 51 45 141q-41 18 -39 69q12 12 41 21.5t37 15.5q2 31 32.5 86.5t32.5 85.5q16 6 20.5 25.5t10.5 26.5q31 53 98 153q-4 4 -63 17l-23 34q-2 8 -2 15q0 45 100 45h9q24 -1 42 -1q35 0 46 3q190 39 348 39q104 0 199 -17l12 -28 q-59 -18 -303 -43q-100 -10 -174 -39q-45 0 -55 -13q-10 -39 -52 -75q-25 -23 -57 -66q-20 -49 -63 -123l-41 -102q12 -4 22 -4t44 12t50 14q45 6 66 21q29 8 340 125l84 -8q-68 -68 -98 -68q-39 -37 -117 -68q-109 -43 -125 -53q-43 -10 -131 -53q-55 0 -176 -47 q-80 -168 -80 -307q0 -29 4 -54q27 -98 92 -104q9 -1 19 -1q94 0 196 75l209 157q2 -41 -27 -79q-8 -10 -59 -62q-150 -179 -322 -179q-11 0 -22 1q-157 57 -184 166z" />
<glyph unicode="F" horiz-adv-x="802" d="M20 446q0 42 46 52q68 0 92 16q10 16 14 66q4 41 27 65q57 172 80 248q43 143 59 246l-27 49q39 24 92 23q11 0 23 -1q33 -3 58 -2q33 0 53 4q25 2 206 33q123 20 209 21q31 0 60 -2q2 -4 24 -23q16 -12 17 -24q0 -16 -17 -33q-8 2 -16 2h-12q-18 -4 -33 8 q-18 -2 -84 -18q-41 -11 -71 -12q-8 0 -15 1q-35 -2 -103 -26h-9q-32 0 -85 -12q-61 -13 -90 -13q-12 -10 -35 -10h-12q-20 4 -33 -14l-137 -437q-16 -18 -25 -59q-12 -49 -18 -64q6 -6 35 -2q35 6 39 4q41 14 123 22.5t118 18.5q55 16 109 17q57 0 111 -19 q-4 -27 -12.5 -28.5t-35.5 -5.5q-10 0 -16 -9l-315 -75h-6q-40 0 -78 -25q-10 2 -25 2q-25 0 -63 -8l-21 -25q-57 -211 -57 -278q0 -23 4 -43h2q16 0 20 4q12 10 29 10q-2 -70 -63 -106q-7 -2 -15 -2q-28 0 -51 26q-17 14 -16 43q0 11 2 23q2 14 2 26q0 25 -10 35l55 260 q-31 4 -66 12q-37 7 -37 39z" />
<glyph unicode="G" horiz-adv-x="731" d="M-35 451q4 8 146 254q43 59 118 182q27 20 66 73.5t67 73.5q6 20 34 41t34 31q137 131 268 145q6 -6 45 -18q29 -8 33 -31q0 -25 -12 -47q-20 -10 -45 -10q-10 0 -37 2t-37 0q-18 -4 -35 -21q-35 -10 -92 -67q-35 -18 -80 -76q-49 -63 -78 -82q-41 -53 -139 -194 l-129 -224q-104 -184 -104 -288q0 -106 84 -152q27 -6 57 -6q100 0 283 106q57 35 172 142q2 12 22 80q16 57 17 90q0 29 -13 47q-133 -23 -213 -103q-8 -1 -15 -1q-38 0 -58 36q16 49 71 78l94 51q98 29 107.5 32t19.5 3q12 0 31 -10q12 -2 15 -2q4 -8 34 -35 q25 -23 25 -78q0 -84 -35 -180q-23 -55 -65 -170q-2 -20 -23 -94q-15 -52 -15 -80q0 -6 1 -10l4 -5q8 -6 8 -12q0 -4 -4 -10q-14 -14 -35 -14q-14 0 -31 6q-29 20 -28 65q0 23 10 68t10 67q2 6 11.5 28t9.5 30q-223 -203 -424 -203q-20 0 -41 2q-186 89 -187 206 q0 126 78 284z" />
<glyph unicode="H" horiz-adv-x="821" d="M-35 74q0 66 37 186q45 147 53 191q14 6 11 12q-10 14 -11 18q-59 23 -58 62q0 6 1 12q18 18 41 18q6 0 20.5 -2t20.5 -2q16 0 24 27q16 55 82 221l68 320q8 18 68 28l59 -45q-18 -14 -21 -26q-4 -18 -8 -25q-14 -86 -55 -180q1 -5 1 -12q0 -30 -17 -70q-23 -57 -25 -80 q-25 -53 -53 -160q113 14 444 82q8 6 19.5 33t19.5 35q47 137 152 403q8 6 19 32t26 34q9 46 36 46q4 0 9 -1q31 0 49 -41q6 -6 14 -19q-39 -41 -67 -116q-31 -84 -56 -119q-12 -53 -88 -229q-10 -12 -10 -51.5t-20 -49.5q-109 -274 -109 -440q0 -78 21 -143q4 -2 14 -3h4 q33 0 25 -28q-4 -16 -50 -27q-8 0 -18 -4q-96 82 -96 232q0 94 34 219l43 153q-61 -8 -149 -33l-147 -40q-10 0 -23.5 -12.5t-28.5 -12.5q-12 0 -32 6q-27 -2 -74 -20q-6 -27 -25 -52l-37 -137q-23 -88 -49 -133q-12 -47 -12 -72q0 -29 14.5 -44t14.5 -23q0 -6 -4 -15 q-23 -14 -41 -12q-20 6 -41 10q-19 48 -19 99z" />
<glyph unicode="I" horiz-adv-x="442" d="M117 76q4 63 24 225q47 301 154 614q10 29 40 77t40 71q20 23 71 22q27 -20 27 -51q0 -20 -12 -47q-20 -12 -33 -35q-6 -14 -18 -47q-10 -14 -21.5 -55t-32.5 -59l-84 -302q-45 -168 -47 -309q-25 -41 -24 -96q0 -43 14 -84q16 -12 10 -53h-4q-46 0 -71 41q-8 14 -33 88z " />
<glyph unicode="J" horiz-adv-x="448" d="M-324 -319l5 20q125 25 219 131q49 55 77 92q45 57 62 103q172 225 252 833q4 104 26 316q4 35 37 43q12 6 23 6q16 0 47 -27l16 -27l-47 -364l-14 -96q-37 -250 -131 -465q-18 -70 -98 -223q-18 -39 -140 -173q-12 -25 -45 -55q-39 -37 -49 -51q-152 -76 -188 -76 q-27 1 -52 13z" />
<glyph unicode="K" horiz-adv-x="874" d="M8 -104q20 162 82 423q76 324 92 420q-2 14 10.5 40t12.5 38q0 8 -4 14l65 304q29 41 25 63l-12 16q33 29 69 29q16 0 35 -6l11 -23q9 -18 9 -28q0 -12 -10 -25q-25 -43 -45 -141t-47 -141q4 -10 4 -21q0 -18 -16.5 -54t-16.5 -48q0 -10 7 -19q145 84 157 92 q90 57 148 109l276 172q12 4 23 4q16 0 55 -39q-2 -39 -47 -74q-59 -12 -162 -77l-152 -103q-77 -49 -104 -63q-57 -39 -94 -74q-57 -27 -70 -53q-20 -47 -20 -90q0 -84 84 -166l155 -129q68 -59 140 -64q8 -12 41 -20q8 -4 32 -15q-34 -19 -67 -19q-17 0 -33 5 q-47 15 -64 15q-2 0 -4 -1q-225 94 -364 297q-8 -8 -11 -39.5t-18 -50.5q-39 -133 -94 -413q6 -12 6 -27q0 -10 -2 -18q-14 -25 -37 -25q-22 0 -45 25z" />
<glyph unicode="L" horiz-adv-x="618" d="M33 104q16 213 90 451l141 440q-10 8 -10 21q0 18 18 39q2 8 17 53q8 29 41 39q16 0 53 -39q2 -4 18 -14q-8 -41 -39.5 -126t-37.5 -132q4 -10 -7 -17v-2l-4 -2q-29 -23 -45 -92l-16 -109l-12 -10q-20 -53 -44 -167.5t-46 -170.5q-6 -39 -17 -139q-1 -13 -1 -25 q0 -53 30 -82q70 8 194 46q178 53 277 63l43 -33q-88 -53 -141 -55q-8 -12 -19 -14h-22q-10 -2 -17 -15q-10 -4 -100 -30q-20 -14 -71.5 -23.5t-72.5 -26.5q-39 -2 -75 -2q-47 0 -62 33q-65 14 -64 113q0 13 1 28z" />
<glyph unicode="M" horiz-adv-x="1212" d="M-82 -41q6 57 43 150q41 100 49 145q12 63 53 179t58 179q25 96 92 293q66 190 90 293q49 20 53 23q39 0 58 -50q13 -30 12 -68v-11q8 -6 10 -25.5t10 -26.5q-12 -74 -16 -264v-29q0 -136 35 -188q49 27 108 80l103 90q18 25 53 53l57 47q170 168 193 187 q111 104 205 172q23 16 43 16t39 -16q8 -14 8 -33q0 -10 -5 -37.5t-3 -44.5q-141 -410 -238 -780q-2 -12 -14 -72q-10 -43 -10 -71q0 -29 10 -50q-14 -39 -64 -112l-10 10q-25 25 -49 14l-17 37q51 309 273 998q0 12 -6 6q-39 -25 -86 -74l-78 -84q-10 -8 -59 -53l-242 -219 q-12 -27 -55 -59t-54 -46q-31 -16 -88 -55q-111 2 -137 115q-8 98 -18 196q8 33 8 39q0 12 -10 25q4 18 4 45q0 33 -7 80l-196 -633q1 -5 1 -11q0 -30 -18 -79q-29 -84 -30 -95q-39 -90 -58 -198q-13 -8 -28 -8q-21 0 -45 14q-4 2 -27 6z" />
<glyph unicode="N" horiz-adv-x="987" d="M-4 -90q0 8 8 41q6 27 2 39q68 195 180 569q117 389 179 569q18 12 38 13q53 0 37 -2q18 -25 45 -41q-2 -26 -1 -51q0 -91 24 -152q-4 -31 -4 -66q0 -45 8 -122q10 -90 12 -121q51 -289 144 -443q-4 14 18 41q6 39 38 113t38 113l133 381q80 209 178 360q37 20 45 20 q33 0 33 -30l-21 -45q-4 -6 -2 -25q-23 -6 -36 -47q-8 -25 -25 -35q-4 -16 -41 -108q-27 -68 -29 -111q-12 -43 -55 -121q-8 -47 -14 -57q-8 -31 -27 -53q-33 -117 -119 -363q-20 -88 -86 -190q-25 8 -71 26q-121 162 -187 500q-18 49 -24 195q-10 37 -15.5 109.5 t-13.5 107.5h-2l-100 -336q-16 -41 -41 -154q-23 -98 -52 -149q4 -10 5 -23q0 -27 -27 -84t-29 -83.5t-21.5 -89t-17.5 -97.5q-18 -39 -51 -39q-53 0 -53 41z" />
<glyph unicode="O" horiz-adv-x="948" d="M-72 248q0 182 185 457q4 8 96 143q115 166 293 268q129 37 178 37q47 0 80 -23h28q131 -143 132 -309q0 -41 -9 -84q-4 -4 -4 -8q0 -6 2 -18.5t2 -18.5q-4 -8 -14 -18q-25 -121 -139 -273q-12 -10 -39 -67q-180 -182 -240 -230q-156 -123 -295 -122q-18 0 -37 2 q-31 8 -81 43q-138 63 -138 221zM39 254q0 -184 154 -184q117 0 258 129q104 78 116 110q88 88 140 168q109 170 108 346q0 61 -14 115q6 16 -13.5 33.5t-19.5 29.5l-37 33q-18 16 -39 17q-8 0 -16 -2l4 -9l-25 -24q-6 25 -18 26q-45 0 -107 -45q-45 -35 -79 -43 q-361 -368 -412 -700z" />
<glyph unicode="P" horiz-adv-x="804" d="M0 406q0 37 31.5 47t93.5 55q0 33 24.5 91t28.5 89q2 16 29 80q18 47 18 80q0 14 -2 29q16 6 21.5 33.5t19.5 35.5q0 8 12 49q10 29 11 49q-51 -12 -144 -55q-49 10 -57 15q-31 12 -31 40q-4 35 45 52q35 0 98.5 22.5t94.5 24.5q156 43 248 57q22 1 42 1q293 0 361 -165 q0 -49 -39 -96q-27 -25 -67 -78q-35 -23 -84 -82q-16 -6 -42 -30.5t-38 -30.5q-31 -14 -142 -90q-90 -59 -149 -80l-164 -86q-37 -113 -84 -340q18 -16 19 -41q0 -16 -23 -76l-14 -43q-4 -2 -25 -18q-6 -6 -16 -7q-6 0 -13 3q-6 14 -24 20q-29 4 -27 33q-1 5 -1 12 q0 24 12 67q14 54 14 77q0 12 -2 22q23 74 53 223q-6 4 -14 4q4 0 -70 -22q-4 17 -4 29zM248 565l41 13q10 12 49 30.5t51 34.5q33 14 121 74q74 49 125 63q18 27 86 97l67 67q37 41 46 86q-31 55 -111 64q-45 2 -133 8q-12 1 -24 1q-80 0 -148 -36q-53 -123 -49 -160 q-28 -43 -29 -74q0 -7 2 -14q-39 -82 -94 -254z" />
<glyph unicode="Q" horiz-adv-x="1040" d="M-119 106q-4 43 29 78q51 53 57 66q61 37 119 76q4 39 27 104q25 74 30 102q41 106 107 199l129 182l143 115q94 68 158 82q55 12 108 12q66 0 97 -26q72 -33 90 -72q0 -25 -35 -55q-12 2 -18 0q2 -12 18 -54q14 -31 12 -53q23 -80 23 -155q0 -104 -43 -185q0 -8 2 -26 t-12 -29q-27 -125 -101 -193q-4 -6 -10 -22q55 -41 148.5 -138.5t146.5 -136.5q86 -20 160 -45q-82 -29 -140 -28q-57 0 -86 26q-45 31 -143 129q-86 86 -149 117q-51 -53 -119 -108q-84 -113 -252 -113q-31 0 -60 4l5 23q-184 18 -234 223q-47 -16 -96 -78q0 -27 -6 -31 q-16 -16 -32 -16l-26 10l-10 8q-12 10 -37 8zM249 96q56 -59 128 -59q117 0 289 188q-72 45 -111 45q-90 39 -188 39q-176 0 -177 -80q1 -71 59 -133zM211 395q78 14 154 15q172 0 313 -76q2 -2 26.5 -5t28.5 -20h2q4 6 13 17q121 193 120 391q0 150 -75 248q-49 16 -76 16 q-29 0 -57.5 -13.5t-63.5 -52.5q-47 -53 -57 -61q-4 -27 -58 -98q-31 4 -43 49l-53 -45q-92 -150 -94 -158q-51 -84 -64 -170q-12 -10 -16 -37z" />
<glyph unicode="R" horiz-adv-x="835" d="M-119 393q0 10 6 25q64 39 187 39h24l8 6q2 20 19 76q14 47 12 75l25 43q47 143 121 435q-31 10 -31 51q-4 20 18 35q18 8 37 18q18 -18 64 -29q25 -6 63 -30q68 -8 201 -41q166 -66 194 -84q98 -63 101 -183l-31 -28q-6 -20 -65 -86q-84 -70 -213 -160l-95 -57 q-49 -25 -172 -64q-10 -2 -53 -22q-23 -6 -22 -25q61 -39 168.5 -145.5t168.5 -143.5q35 -20 134 -47q29 -8 77 -10q43 -2 101 -10q-31 -31 -94 -51l-35 -2q-130 0 -244 69q-88 53 -207 178q-14 6 -84 56q-49 35 -90 45l-4 -7q0 -20 -18 -83q-12 -40 -12 -65q0 -9 1 -15 q4 6 25 45q14 27 51 26q1 -7 1 -14q0 -38 -27 -87q-32 -58 -31 -85q-16 -31 -70 -80q-70 14 -70 86q0 31 21 107q18 70 16 102q18 39 18 67q0 8 -1 15h-148q-2 18 -23.5 30.5t-21.5 24.5zM207 475q78 12 229 86q133 66 217 123q27 18 148 139q16 33 16 58q0 18 -10 30 q-100 55 -272 101q-12 -4 -25 -4q-18 0 -51 11t-47 11t-27 -6q-6 -23 -26 -69q-16 -38 -16 -67q0 -6 1 -11h-10q-10 -43 -49 -152q-35 -98 -39 -156q-2 -10 -21.5 -44t-17.5 -50z" />
<glyph unicode="S" horiz-adv-x="700" d="M-90 41q18 8 33 8q10 0 31.5 -7t35.5 -5q11 0 22 -1q222 0 466 202q49 40 48 88q0 9 -1 18q-12 41 -113 125q-133 82 -199 145q-90 47 -90 162q0 27 7 55q41 121 134 219.5t212 147.5q45 18 104 19q115 0 115 -46q0 -4 -3 -15t-3 -17q-12 -23 -60 -58l-6 23 q-10 -16 -20 -17q-8 0 -25 23l-4 2q-8 2 -19 2q-20 0 -54 -16.5t-50 -18.5q-80 -59 -106 -86q-53 -51 -76 -112q-20 -4 -45 -56q-6 -29 -6 -53q0 -86 90 -147q43 -29 161 -101l95 -94q53 -63 53 -115q0 -39 -25 -79q-61 -80 -172 -144q-61 -37 -204 -98q-23 2 -43 -14 q-59 -6 -109 -7q-109 0 -166 31z" />
<glyph unicode="T" horiz-adv-x="1150" d="M-14 1192q33 29 51 29q39 0 104 -62q66 -2 117 -2q88 0 133 8q18 18 19 54q0 8 -2 22v25q0 59 71 63q27 -12 38 -51t22 -45q8 -30 40 -30q11 0 25 3q84 20 160 47q82 8 217 41q47 12 209 43q16 2 71.5 13.5t81.5 11.5q86 0 107 -74q0 -23 -20 -31q-6 -2 -15 -2 q-10 0 -18 7q-29 16 -72 16q-35 0 -135 -23q-61 -2 -287 -65q-170 -47 -381 -98q-25 -6 -35 -35q-16 -45 -20 -49q-111 -524 -238 -1016q-15 -19 -31 -19q-12 0 -24 11q-10 8 -31 41l95 397q55 238 79 403q16 20 22.5 68.5t14.5 67.5q12 61 14 61l1 -2q2 12 -11 33l11 10 l-4 4q-68 -8 -127 -8q-113 0 -189 28q-2 4 -10 23q-4 4 -14 4q-2 14 -21.5 34.5t-17.5 43.5z" />
<glyph unicode="U" horiz-adv-x="854" d="M-12 53q6 223 98 522q27 86 180 504q10 12 27 66q12 41 43 57q7 1 13 1q32 0 54 -17l17 -80q-31 -25 -58 -88q-29 -70 -49 -92q-10 -47 -63 -174q-45 -104 -51 -179l-15 -8q-90 -332 -90 -454q0 -53 10 -97q4 -10 23 -10q16 -2 33 10q106 80 274 344q35 43 83 134.5 t75 128.5q106 201 215 573q39 27 65 27q11 0 19 -4q27 -14 27 -43q0 -18 -19.5 -63.5t-19.5 -63.5q-10 -43 -127 -406q-78 -242 -99 -412q29 -10 29 -45q0 -14 -33 -106q-2 -6 -39 -37q-18 -6 -26 2l-19 12q-4 0 -22 -4q0 13 -1 26q0 139 40 339l-101 -162 q-18 -16 -49 -64.5t-55 -66.5q-115 -190 -258 -211q-119 45 -131 141z" />
<glyph unicode="V" horiz-adv-x="864" d="M63 1024q4 41 39 41q35 -4 43 -8q23 -8 29 -31q14 -49 14 -94q0 -33 -8 -64q10 -20 13 -59q2 -55 4 -61q-14 -27 -15 -54q0 -18 10.5 -54t10.5 -54q0 -14 -4 -29q6 -14 5 -50t7 -48v-32q0 -215 78 -368q147 154 282 437l109 233q41 68 88 199q49 145 80 202q12 14 33 15 q14 0 32 -6q18 -20 19 -45q0 -27 -27 -82l-14 -43q-29 -59 -78 -189q-20 -25 -39 -69q-6 -16 -33 -76q-29 -66 -151 -299l-10 -41q-18 -2 -25 -27l-8 -16q-39 -41 -115 -160q-68 -106 -129 -151q-68 0 -96 43q-18 29 -32.5 99.5t-33.5 98.5q-25 139 -39 421t-39 421z" />
<glyph unicode="W" horiz-adv-x="1230" d="M33 883q0 12 2 30q12 2 37 17q25 14 43 0q10 -12 15 -54t15.5 -54.5t10.5 -30.5q0 -8 -2 -23.5t-2 -24.5q0 -16 8 -26q-2 -15 -2 -34t2 -42q6 -63 6 -76q0 -25 -4 -45q4 -23 3 -54q0 -20 -1 -44q-5 -60 -5 -87q0 -9 1 -13q4 -16 20 -119q12 -74 33 -115q141 248 272 522 q14 45 54.5 129t54.5 127q20 6 39 6q51 0 56 -48l16 -146q9 -75 8 -130v-22q2 -4 45 -182q27 -111 71 -174q8 14 105 264q158 406 326 725q3 1 5 1q10 0 27 -5h27q-33 -76 -47 -104q-29 -57 -64 -93q-18 -55 -24 -71q-18 -43 -39 -68q-4 -10 -78 -254q-59 -193 -125 -348 l-61 -145q-14 0 -33 -16.5t-37 -12.5q-39 35 -113 184q-10 39 -28 97q-35 113 -49 260q-8 96 -17 151q-12 -6 -22 -30q-12 -31 -19 -37q-49 -135 -151 -363q-47 -104 -74 -155q-45 -92 -86 -148q-6 -2 -33 -12q-18 -8 -31 -8q-8 0 -18 2q-80 129 -80 227q0 20 2 39 q-8 49 -12 311q-4 193 -43 303q-4 5 -4 19z" />
<glyph unicode="X" horiz-adv-x="851" d="M-176 -53q0 10 14.5 31.5t16.5 29.5q55 76 161 209q33 53 72 92q0 25 23 33q45 57 143 170q6 27 -29 51q-139 225 -139 424q0 24 2 47q14 31 64 35q39 -6 38 -45q0 -10 -3 -29.5t-3 -29.5q0 -18 11 -31q10 -172 122 -332l7 -6q82 76 182 197l172 206l22 13q18 8 29 8 q31 0 31 -31q0 -10 -37 -63q-57 -68 -172 -217l-168 -177l-8 -32q96 -104 274 -330q72 -68 131 -180q-16 -16 -30 -10q-8 8 -17 12q-41 49 -131 133t-129 127q-31 12 -67 65q-43 59 -64 74q-6 16 -39 41q-47 -31 -127 -141q-51 -45 -205 -250q-12 -10 -43 -74 q-25 -51 -59 -51q-45 0 -45 31z" />
<glyph unicode="Y" horiz-adv-x="724" d="M-129 -84q8 39 45 59q29 16 31 37q74 57 139 131l123 146q25 27 59 88q18 18 43 57q-31 49 -26 72q-20 25 -62 141l23 8q-35 98 -53 246l-27 252q6 20 35 57q8 2 16 2q27 0 43 -30l4 -6q2 -4 6 -11v-17q0 -55 9 -224q12 -262 90 -400q92 106 196 322q16 35 90 162 q18 45 45 137q33 16 50 16q33 0 32 -47q0 -16 -37 -92q-12 -23 -12 -45q-18 -8 -18 -23q-4 -20 -15 -30h-2q-20 -45 -141 -269l-88 -127q-2 -6 -47 -65q-25 -33 0 -57l-6 -25q-31 -16 -86 -59q-57 -59 -166 -191q-31 -20 -121 -117q-70 -74 -143 -92v-6h-29z" />
<glyph unicode="Z" horiz-adv-x="1103" d="M-66 14q-4 53 39 92l82 64l514 309q70 43 109 70q152 104 190 135q104 80 168 160q-55 23 -181 22h-21q-203 -2 -369 -35q-18 -12 -80 -16q-53 -2 -74 -24q-57 0 -321 -23q-16 8 -17 31q0 18 13 45l34 33q154 0 394 36q309 47 387 52q34 2 64 1q219 0 274 -89 q-14 -74 -78 -132l-115 -100q-250 -184 -684 -446l-100 -58q-53 -31 -86 -75q12 -6 43 -5q80 6 262 41l336 66q152 28 290 28q26 0 52 -1q25 0 24 -27q0 -20 -12 -41l-133 -16q-172 -20 -330 -50q-14 -12 -48 -12t-44 -10q-12 -2 -217 -49q-133 -31 -217 -31q-87 0 -148 55z " />
<glyph unicode="[" horiz-adv-x="583" d="M-18 -322q10 43 24 132q2 20 -2 24q45 199 84 354l21 82q18 78 26 86q12 23 15 66q0 -6 26 74l47 149q8 33 15 53q0 10 -2 15l71 248q31 86 84 260q4 25 15 67l26 111q45 29 94 22q18 -2 54 0q14 2 92 9q57 6 94 6h31q14 0 28 -2q2 -4 25 -23q16 -12 16 -25 q0 -16 -16 -32q-6 2 -16 2h-13q-10 0 -41 -4l-84 -13q-106 -14 -127 -14h-12q-20 2 -33 -14q-29 -86 -164 -529q-16 -18 -24 -57q-12 -61 -31 -107q-6 -16 -8 -20l-119 -461l-41 -151q-8 -37 -28 -113q-8 -27 -9 -55q0 -6 -13 -59.5t-13 -59.5q12 0 20 -6l35 -2 q45 -2 139 -8q33 -2 39 -2q12 12 31 12l12 2q10 0 17 4q16 -14 20 -31q2 -12 -10 -25l-25 -26l-57 -12l-137 -6h-31q-23 -8 -80 -11q-29 0 -49 27q-22 18 -16 63z" />
<glyph unicode="\" horiz-adv-x="1421" d="M70 158q0 43 10 86q6 29 29 78q16 23 36 65q66 86 158 148l45 30q45 29 174 80q16 0 50 17.5t55 15.5q6 4 67 20q12 12 41 17h8q12 0 21 10q12 0 41 7t43 5q37 8 113 17q20 8 61 9t59 7q289 0 295 -156q2 -59 -41 -122q-59 -86 -65 -109q-63 -80 -144 -123q-4 -2 -39 -31 q-10 2 -14 -2l-6 -8q-68 -45 -188 -98q-147 -66 -193 -92q-14 0 -42 -13.5t-38 -15.5q-16 -2 -61 -23q-37 -16 -62 -16q-31 -14 -80 -14h-81q-96 35 -105 141q-6 74 21 209q8 4 16 33q0 6 8 18q35 53 117 148l59 53q-20 -12 -76 -41q-33 -27 -102 -78v-2q0 -6 -4 -10 l-41 -43q-37 -37 -39 -41v-21q0 -16 -18 -28q-6 2 -11 -9l-2 -4q2 -12 -14 -34q-4 -57 -4 -78q0 14 2 -37v-39q29 -70 57 -94q8 -10 97 -60q12 -2 36.5 -7t36.5 -7l11 -10q4 4 12 4q6 0 14 -2q2 -10 0 -19q16 6 31 7q27 0 72 -23h-115q-8 -4 -23 -4l-59 14q-35 8 -59 6 q-104 45 -138 127q-32 58 -32 142zM291 156q0 -27 14 -41q31 -23 90 -15q66 8 230 54l4 4q18 10 26 8q49 16 142 57q10 -2 57 21q12 10 49 22.5t49 24.5q158 68 287 188q25 23 18 41q0 115 -329 131q47 -25 39 -88q-4 -4 -6 -4l-5 -2q-6 -6 -20 -6q-16 29 -86 49 q-55 -2 -256 -55q-6 -8 -25 -19l-6 -2q-4 -2 -12 -12q-92 -37 -162 -121t-94 -182q0 -8 -2 -26.5t-2 -26.5zM305 37q10 -6 17 -17q27 -8 57 -8q57 0 143 31l137 49l21 10l-23 -8q-43 -10 -127 -45q-16 -4 -100 -18q-57 -10 -125 6zM1079 705q4 -2 11 -5q176 -18 221 -129 q6 23 6 39q0 68 -115 82q-49 16 -110 13h-13z" />
<glyph unicode="]" horiz-adv-x="655" d="M-225 -344q0 16 16 33q4 -2 14 -2h11q-6 0 116.5 12t116.5 12l12 -2q18 -4 31 15l72 225l94 299q16 20 24.5 56t30.5 108q6 14 9 18l122 457l43 151q8 37 29 113q8 25 8 53q0 -2 17 60q12 53 12 59q-12 0 -18 6q-8 0 -162 17q-31 2 -37 2q-8 -12 -27 -13h-12 q-10 0 -14 -4q-16 14 -21 31q0 4 35 51q18 2 53 10q18 2 43 2h113q20 8 74 9q23 0 45 -29q20 -20 12 -64q-10 -43 -25 -131q-2 -20 0 -24q-45 -201 -86 -350l-37 -142q-8 -25 -12 -26q-12 -23 -14 -66q0 4 -6 -16l-43 -129q-14 -43 -23 -74l-14 -53q-2 -10 -2 -17 q-23 -82 -76 -245.5t-80 -257.5q-12 -41 -16 -68l-29 -109q-41 -27 -86 -20q-16 2 -49 0q-31 0 -62 -2l-63 -4q-31 -2 -49 -2h-27q-14 0 -26 4l-23 20q-16 15 -14 27z" />
<glyph unicode="^" d="M268 938q0 49 58 160q86 168 157 268q25 16 64 68.5t65 68.5q41 25 105 -2q41 -59 68.5 -178t50.5 -172q2 -14 2 -16q-2 -25 14 -33l-4 -37q29 -203 37 -305q2 -8 4 -74q-35 -43 -58 -43q-27 0 -34 64q-8 92 -23 233q-29 289 -112 471q-135 -104 -211 -299 q-12 -6 -22.5 -35.5t-22.5 -38.5q0 -29 -33 -67q-16 -25 -72 -80q6 -6 6 -8q0 -8 -24 -6l18 14l-21 17q-12 10 -12 30z" />
<glyph unicode="_" horiz-adv-x="747" d="M25 -18q14 39 49 43q55 6 63 8q164 43 484 43q63 0 116 -13l21 -22q0 -16 -15 -35q-100 2 -292 -14q-227 -18 -353 -49q-40 6 -73 39z" />
<glyph unicode="`" horiz-adv-x="112" d="M18 1221q-6 33 2 41q4 2 7 4l2 2q8 4 18 4q6 0 14 -2q12 -23 19 -58q6 -27 11 -58.5t9 -90.5q2 -35 -8 -66l-39 2q4 12 4 23q0 10 -4 18q-6 23 -6 33q-2 23 -14 64z" />
<glyph unicode="a" horiz-adv-x="448" d="M-51 76q0 145 28 221q72 197 285 346h33q47 0 47 -55q0 -18 -12 -74q-10 -27 -45 -70q-6 -14 -49 -28q10 53 32 82l11 32q2 4 2 13q0 6 -2 14q10 8 10 14q-12 2 -43 -34q-6 -4 -21 -19q-211 -242 -215 -438q8 -59 37 -66q70 18 121 107q57 51 102 184q23 51 84 260 q8 18 45 31q18 -20 19 -45q0 -14 -8 -39q-8 -31 -11 -41q-82 -225 -82 -299q0 -96 39 -131q8 2 52 27q37 20 45 20q2 -10 2 -20q0 -39 -22.5 -49.5t-74.5 -38.5q-1 0 -3 -1q-27 0 -83 33q-2 16 -16 55t-14 62q-16 -18 -23 -33q-76 -94 -88 -106q-49 -43 -105 -43 q-11 0 -22 2q-55 43 -55 127z" />
<glyph unicode="b" horiz-adv-x="540" d="M-41 86q33 -8 66 -37q20 -18 43 -16q121 8 220 88t144 196q49 125 49 179q0 35 -12 63q-10 6 -14 27q4 2 0 2q-12 6 -25 6q-20 0 -45 -16q-51 -35 -88 -101q-63 -84 -104 -158l2 -2l-9 -22q-8 2 -10 -2l-2 -6q-6 -16 -14 -21q-12 -25 -49 -71q-2 -6 -37 -37 q-31 -4 -41 12t-8 47q0 6 2 12v11q168 451 227 712q16 12 35 13q23 0 35 -23q1 -5 0 -11q0 -23 -12 -63q-15 -49 -15 -69q-10 -33 -35 -90l-37 -123q-23 -59 -65 -185l6 11q2 6 2 8q10 12 49 76q29 47 59 69q53 102 163 102q14 0 28 -1q78 -33 82 -146v-17q0 -163 -109 -317 q-63 -119 -250 -196q-49 -20 -102 -21q-113 0 -129 117zM397 528q0 20 17 21q14 0 14 -21h-31z" />
<glyph unicode="c" horiz-adv-x="442" d="M23 199q68 330 243 428q70 -12 88 -72q4 -12 -4 -24.5t-22 -12.5q-6 0 -15.5 7t-17.5 7q-4 0 -10 -2q-8 -8 -52 -47q-31 -29 -38 -55q-23 -29 -52 -104q-29 -39 -34 -99v-104q20 -70 86 -70q53 0 227 90l2 2q12 12 39 4q0 -39 -31 -63q-12 -12 -47 -41q-78 -66 -180 -66 q-53 0 -103 23q-79 52 -79 199z" />
<glyph unicode="d" horiz-adv-x="620" d="M-6 55q0 47 14 105q8 61 60 235q10 37 53 107l51 84q39 61 94 61q33 0 88 -69q2 -16 15 -33q16 98 71 286q0 14 37 115q12 23 35 23q37 0 51 -37q1 -16 1 -33q0 -167 -56 -379q-16 -59 -66 -155q-29 -55 -28 -127q0 -74 28 -134q20 -25 45 -24q12 0 25 8q29 10 59 43 l47 55q14 16 58 39q4 -18 4 -32q-4 -14 -29 -74q-61 -63 -73 -74q-47 -39 -93 -39q-20 0 -43 8q-63 37 -98 123l-100 -135q-66 -74 -138 -74q-31 0 -63 13q-49 42 -49 114zM80 63q0 -27 6 -51q2 -10 27 -10q113 53 215 252q-2 18 12 92q2 10 2 39q-4 16 10 78q-31 10 -53 45 l-10 16q-10 18 -25 27q-61 -68 -119 -191l-2 -20q-25 -29 -49 -143q-14 -116 -14 -134z" />
<glyph unicode="e" horiz-adv-x="479" d="M-8 139q63 324 307 506q8 2 47 8q8 2 16 2q22 0 38 -14q22 -18 22 -51q-4 -27 -6 -51q-35 -119 -238 -275q-12 -10 -67 -20q-33 -6 -31 -37q-23 -39 -23 -74v-10q0 -16 17 -62q35 -49 112 -49l9 6q33 0 90 23q57 35 182 98q2 -8 2 -14q0 -12 -10 -23l-6 -6q-10 -6 -9 -20 q-164 -123 -262 -131h-9q-51 0 -99 20q-45 25 -62 66q-14 32 -20 108zM137 336q10 0 23 8l102 94q59 63 78 111q-6 6 -14 12q-109 -67 -189 -225z" />
<glyph unicode="f" horiz-adv-x="354" d="M-121 -184v11q0 30 8 83q4 18 43 158l37 141q2 8 32 120.5t32 127.5q2 23 12 30l18 95q-8 2 -28.5 -3.5t-26.5 -5.5q-31 -2 -39 35l-2 43q14 8 34.5 9.5l63.5 4.5t39 46q8 18 88 237q53 147 101 234q39 39 74 69q18 18 41 19h3q29 0 52 -37q8 -33 8 -62q0 -49 -25 -81 q6 -14 17 -27q4 -10 -4 -35q-6 0 -8 -2v-18q-12 -6 -17 -19v-10q-4 -31 -26 -41q-25 -8 -44 16l-4 7q-2 4 -12 10q18 57 45 168l-4 20q-4 -2 -27 -35q2 -37 -22 -39q-92 -201 -152 -364l-4 -25q20 -2 57 8.5t52 10.5h6l59 -19v-10q2 -4 2 -6l2 -8q2 -4 2 -17 q-74 -10 -212 -57l-87 -338l-49 -170q-39 -139 -39 -164q-12 -18 -10 -53q20 -12 23 -35q0 -8 -8 -47q-4 -2 -12.5 -21.5t-26.5 -25.5q-37 9 -62 72z" />
<glyph unicode="g" horiz-adv-x="436" d="M-195 -659q11 -1 22 -1q91 0 122 64q43 39 69 94q115 238 160 484q-24 -13 -54 -13q-28 0 -63 11q-92 57 -108 129q-14 61 -14 106q0 47 14 84q78 195 168 270q47 29 106 45l66 17q14 2 27 2q57 0 77 -39q14 -31 15 -117v-98q-14 -12 -19 -31q-10 -23 -24 -63l-7 -17 q0 -4 -4 -16q-43 -92 -63 -189q-20 -37 -27 -90q-12 -6 -13 -26.5t-5 -26.5q-72 -260 -94 -319q-117 -313 -271 -314q-16 0 -32 6zM23 209q0 -33 12 -78q10 -37 69 -88q7 -2 14 -2q37 0 77 55q41 57 57 133q4 45 39 111l28 51q0 10 -26 23q41 18 41 53v70l-4 4q0 12 -8 12 q-6 -2 -99 -37q-68 -25 -71 -43q-45 -29 -101 -151q-28 -62 -28 -113z" />
<glyph unicode="h" horiz-adv-x="559" d="M-76 55q0 35 20.5 98.5t22.5 94.5l221 670q-4 27 21 53q-2 23 13.5 42t37.5 19q20 0 39 -24q1 -10 1 -21q0 -55 -28 -108q-51 -100 -65 -170q-8 0 -6 -13l-95 -270l-75 -246l196 250q117 145 234 215q14 8 32.5 8t41.5 -8q18 -14 26 -43q8 -35 14 -43q-12 -31 -18 -82 q-8 -66 -12 -84l-53 -223q-27 -127 -35 -225q-63 45 -64 112q0 25 6 64q8 49 11 63q4 43 45 187q28 97 27 162q0 12 -1 24q-2 1 -4 1q-16 0 -59 -40q-86 -78 -182 -207l-166 -223q-18 -14 -41 -47q-27 -39 -39 -51q-31 -14 -47 -8q-19 34 -19 73z" />
<glyph unicode="i" horiz-adv-x="311" d="M-33 84q0 215 64 424q10 33 55 135q12 14 33 14q20 0 38.5 -14t18.5 -33q0 -10 -6 -18q-37 -59 -70 -156l-45 -213q-9 -43 -9 -100q0 -33 3 -70q4 -12 21 -33q8 -2 24.5 13.5t22.5 17.5q25 16 67.5 63.5t75.5 61.5l47 55q-37 -123 -76 -147q-18 -31 -61 -88 q-77 -47 -114 -47h-3q-37 2 -82 61q-4 37 -4 74zM145 831q0 33 23 41q8 2 49 0q10 0 27 7q16 -6 35 -37q2 -16 -15 -33l-6 -4q-4 -4 -8 -21q-13 -1 -24 -1q-76 0 -81 48z" />
<glyph unicode="j" horiz-adv-x="337" d="M-117 -602l39 110q55 199 146 590l57 311q29 155 31 236q-8 20 18 21h2v-2l4 6h5q32 0 59 -27q3 -10 3 -27q0 -6 -2 -21.5t-2 -23.5q0 -26 27 -61q-23 2 -28 2q-8 -2 -6 -12q-33 -219 -101 -477l-98 -367q4 -18 -6 -39q-10 -29 -13 -37q0 -14 -10 -45t-8 -47l-35 -73 q-18 -38 -45 -60q-41 8 -37 43zM242 1020q2 4 2 43q0 27 22 39q9 5 19 4q20 0 41 -21l8 -8q6 -8 20 -18q-6 -16 -18 -29q-29 -31 -37 -78q-6 12 -35 35q-22 8 -22 33z" />
<glyph unicode="k" horiz-adv-x="522" d="M-12 -23q0 23 14 89l150 546q92 336 127 512q14 10 34 11q35 0 39 -31q0 -27 -30 -111q2 -18 -12.5 -51t-14.5 -50.5t-11.5 -52t-11.5 -53.5q0 -10 2 -22q-12 -14 -20 -47q-12 -45 -16 -53q-4 -33 -26 -97.5t-26 -99.5q43 27 113 94q18 -4 25 8q12 29 38 17q102 23 97 22 q16 0 33 -4q16 -16 16 -35q0 -8 -4 -18q-184 -35 -279 -168l-22 -66h8q4 -29 -10 -36l-4 -2q-2 -72 67 -148q35 -27 111 -65q14 -33 86 -68q14 0 18 -2l6 -2h13q2 -25 -33 -43q-233 55 -332 235q-2 14 -10 43q-16 -61 -51 -182q-8 -10 -9 -29q0 -8 2.5 -25.5t2.5 -27.5 q0 -49 -62 -51q-18 28 -18 63z" />
<glyph unicode="l" horiz-adv-x="296" d="M6 94q0 29 2 68q4 8 15 67q25 143 47 242q43 201 106 422q16 59 49 131q39 90 41 94q8 25 39 66q18 23 41 22q20 0 41 -24q1 -5 1 -11q0 -28 -26 -57q-23 -25 -16 -47q-29 -35 -47 -111q-20 -84 -39 -114l-45 -148q6 -14 -6 -26q-2 -8 -43 -154q-27 -88 -33 -154 q-12 -16 -15 -56t-16 -54q-15 -91 -14 -135q0 -17 2 -27q-2 -6 -2 -14q0 -20 12 -51q20 2 45 22q33 27 41 31q23 12 62 8q-37 -68 -92 -117q-12 0 -32 -8t-28 -8q-12 0 -28 10q-41 37 -45 43q-17 29 -17 90z" />
<glyph unicode="m" horiz-adv-x="1077" d="M-37 -10q10 96 62 254q55 172 61 254q-4 51 -23 98q20 18 46 18q19 0 41 -10q25 -37 24 -98q0 -70 -37 -150q0 -27 -13 -85q-10 -45 -10 -73q0 -9 1 -16l196 232q109 127 219 200q59 -23 60 -100q0 -14 -4 -63q-4 -39 -2 -62q-25 -82 -66 -254q2 -2 6 0q57 53 138 174 t129 164l108 98q25 18 92 58q33 0 45 -35q1 -12 1 -25q0 -67 -27 -149q-51 -143 -56 -168q-39 -206 -39 -290v-15h3q8 0 26 -8q-4 -27 -22 -39q-2 0 -43 -17q-49 43 -50 127q0 25 4.5 71t4.5 71q14 72 51 186q45 137 57 184h-4q-6 -4 -14 -18.5t-13 -14.5q-37 -27 -63 -61 q-55 -70 -84 -100l-170 -211q-53 -66 -72 -80q-59 -52 -91 -52q-3 0 -7 1q-4 14 0 39q6 35 6 43q0 29 15 133q6 33 34 127q8 23 11 49q0 16 -2.5 42.5t-2.5 35.5q0 18 -2 34q-41 -25 -98 -102q-63 -84 -96 -111q-41 -59 -129 -143q-78 -72 -109 -133q-2 4 -15 -8t-15 -12 q-4 2 -11 2q-14 -2 -20 -2q-17 0 -31 10z" />
<glyph unicode="n" horiz-adv-x="600" d="M18 98l64 234q37 135 49 237q14 18 35 19q20 0 37.5 -22.5t13.5 -43.5l-88 -362q8 23 41 57q104 145 135 182q82 96 170 152q68 0 68 -72q0 -14 -5.5 -45t-5.5 -45q-14 -68 -26 -133q-16 -84 -17 -133q0 -90 48 -158q-20 -6 -37 -6q-29 0 -51 18q-39 68 -39 162 q0 59 18 150l29 143l-2 4q-78 -59 -176 -207q-104 -156 -166 -213q-29 -12 -52 -12q-12 0 -24 4q-24 18 -24 53q0 17 5 37z" />
<glyph unicode="o" horiz-adv-x="503" d="M-45 92q6 66 35 141l53 134q16 18 43 65q27 41 55 57q27 45 84 58q2 0 4 -1q21 0 64 42q-2 8 10 24q23 2 41 2q31 0 49 -6q84 -59 84 -198q0 -35 -5 -73t-34 -136q-16 -8 -26 -33q-14 -35 -19 -39q-25 -33 -90 -92q-61 -88 -180 -100q-8 -1 -17 -1l-49 5q-79 38 -102 151 zM41 92q0 -25 4 -49q14 -20 61 -25q233 68 310 373q-6 57 -12.5 102.5t-41.5 61.5l-90 -33l21 -24q2 -23 4 -66q0 -37 -23 -59q-10 -6 -20 -8q-1 0 -2 -1q-27 0 -35 68q-18 -8 -47 -43q-35 -41 -49 -51q-57 -123 -62 -143q-18 -54 -18 -103z" />
<glyph unicode="p" horiz-adv-x="667" d="M-115 -700q-2 37 22.5 101t24.5 97q0 12 -2 25q18 27 33 88q16 70 29 92l49 166q20 72 20 140q0 17 -2 34q20 8 29 37q4 23 10 47q-2 35 13 80q16 55 18 74q0 4 6 71q4 45 29 60q7 4 16 4q19 0 47 -17q8 -4 25 -8q-6 -16 -23 -90q-10 -61 -28 -82q0 -43 -27 -121 q2 -12 -6 -47q236 88 373 291q2 10 18 43t16 53q0 70 -92 97q-59 10 -116 18q-10 -6 -101 -37q-61 -23 -86 -55q-4 -10 -39 -45q-2 -4 -26 -41q-16 102 -15 121q76 113 248 151q10 0 21 1q133 0 241 -75q61 -86 62 -145q0 -35 -19 -68q-16 0 -18 -14t-6 -27.5t-21 -17.5 q-72 -94 -178 -182q-121 -96 -219 -125q-41 -12 -53 -21q-25 -16 -21 -53q-18 -88 -65 -264q-12 -12 -19 -66q-27 -100 -98 -315q-4 2 -41 2q-21 -2 -29 23z" />
<glyph unicode="q" horiz-adv-x="577" d="M-137 -307q0 10 8 20q20 24 50 24q6 0 13 -1q39 -12 107 -12q27 1 47 0q41 0 59 -3l17 7l90 266l-109 -35q-23 -4 -43 -4q-76 0 -133 57q-27 47 -26 103q0 51 22 92q168 309 397 362l60 -4q84 -6 90 -135q39 -12 39 -57q-31 -168 -111 -254q-53 -57 -69 -80 q-35 -47 -47 -92q-39 -74 -84 -221q61 -6 112 -13l37 -4q18 -2 14 -33q-63 -31 -188 -30q-47 -104 -90 -344q-2 -8 -8 -42q-5 -27 -33 -28q-7 0 -14 2q-6 33 -7 66q0 57 19 133l33 135q10 18 18 78q-41 -4 -102 -4t-144 4q-24 27 -24 47zM23 104q0 -35 22 -57q27 -10 57 -10 q72 0 211 76q10 20 74 114q47 68 47 185q0 16 -4 32q4 25 -35 33q-82 -12 -184 -78q-80 -53 -164 -211q-24 -47 -24 -84z" />
<glyph unicode="r" horiz-adv-x="493" d="M-35 -12q33 119 144 551q-8 18 -9 30q0 23 29 29q16 3 29 3q40 0 43 -30q0 -4 -6.5 -23.5t-4.5 -49.5q-12 -2 -14 -6q0 -4 2 -21l-6 -18q0 -6 -2 -11q66 86 137.5 161t157.5 83q8 1 15 1q30 0 57 -13q23 -31 26 -66q0 -18 -16 -112l-29 -4q-6 12 -12 81q-4 39 -19 52 q-100 -31 -184 -127l-76 -82q-43 -49 -57 -94q-14 -2 -27 -54q-10 -37 -18 -47q-18 -33 -55 -137q1 -8 1 -25t-1 -43q-8 -43 -41 -53q-8 14 -17 8q-10 -10 -18 -10q-17 0 -29 27z" />
<glyph unicode="s" horiz-adv-x="456" d="M-37 51q0 20 27 39q6 -12 37 -57q14 -23 41 -17q100 25 127 37q74 31 98 84q-6 49 -135 103q-41 16 -103 47q-51 35 -49 94q20 29 68 65q61 45 76 60q29 20 90 47q29 16 141 59q37 -8 39 -8q23 -8 24 -29q0 -16 -26 -30q-14 -4 -42 -17.5t-42 -17.5q-6 0 -92 -41 q-100 -49 -146 -100q0 -4 -10 -21h2q10 -2 8 -2q-2 -2 -4 -2l23 -6q-2 -10 10 -14q2 0 8 -5q4 2 10 3h15q10 -18 54 -33t56 -29q90 -45 105 -108q0 -43 -41 -93q-8 0 -14.5 -10t-10.5 -14q-112 -76 -205 -76h-14q-61 4 -108 39q-17 65 -17 53z" />
<glyph unicode="t" horiz-adv-x="516" d="M37 510q4 23 49 49q31 27 82 37q45 6 90 14q96 188 133 357q14 20 31 20h2q25 0 49 -39q-6 -141 -111 -325q-4 -2 -6 -5q43 -6 86 -10q49 -10 80 -39l2 -39q-8 -1 -19 0q-34 0 -97 5q-13 1 -25 1q-36 0 -64 -10q-127 -245 -127 -412q0 -8 1 -16q0 -25 7 -46t42 -21 q20 0 49 8q23 2 73 32.5t95 32.5q-37 -111 -189 -149q-18 -4 -32 -4q-55 0 -86 35q-37 59 -39 141q0 7 -1 14q0 108 58 254q20 37 47 117q-72 -2 -123 -68h-2q-35 0 -55 66z" />
<glyph unicode="u" horiz-adv-x="638" d="M-23 84q0 39 13 102q12 74 14 103q31 154 115 299q23 4 49 -15q6 -16 6 -28q0 -16 -16 -45q-20 -37 -23 -45q-33 -96 -78 -267q-4 -51 -4 -88q0 -59 10 -84q53 8 84 29q2 2 68 53q14 29 102 142q66 84 76 151q55 133 107 213q14 9 24 9q16 0 23 -21q6 -18 6 -35 q0 -31 -23 -78q-25 -53 -28 -76q-57 -74 -70 -215q2 -10 6 -55q4 -35 23 -41q29 6 51 21q35 25 43 28q25 25 72 66l24 -17q-12 -59 -47 -88q-27 -23 -63 -59q-53 -31 -90 -31q-55 0 -76 72q-4 6 -8 27q-8 33 -17 32q-2 0 -121 -129q-76 -68 -194 -84q-58 66 -58 154z" />
<glyph unicode="v" horiz-adv-x="624" d="M-4 111q0 31 4 71q29 143 51 209q2 45 25 103q33 84 37 98q18 10 34 10q25 0 43 -22q-2 -49 -26 -107q-37 -84 -41 -98q-2 -25 -29 -127q-18 -74 -18 -125q0 -84 30 -113q25 8 52 39q39 45 45 51q96 145 127 209q57 123 57 234q0 31 -4 61q16 12 31 12q14 0 37.5 -22.5 t31.5 -26.5q29 -8 56 -8q35 0 69 21q47 25 56 26l38 -8q-12 -31 -32 -43l-80 -57q-20 -14 -98 -17l-19 6q-12 4 -18 5q-4 -31 -15 -99q-111 -305 -268 -440q-25 -21 -62 -21q-17 0 -36 5q-78 49 -78 174z" />
<glyph unicode="w" horiz-adv-x="993" d="M57 31v20q0 121 23 293l37 299q2 23 30 23q33 0 46 -17q23 -31 22 -67q0 -23 -11 -70q-10 -43 -11 -66q0 -29 -17 -73q-4 -10 -4 -20q0 -21 18 -42q-25 -4 -24 -8v-6q0 -20 -6 -53l-10 -56q-3 -28 -3.5 -49.5t3.5 -38.5q33 20 67 78q39 66 59 84q49 102 209 352 q23 16 52 17q10 0 22 -2q31 -14 31 -41q0 -8 -5 -32t-3 -36q-10 -16 -13.5 -55t-11.5 -53q6 -127 8 -138q14 -80 68 -112q18 -2 41 41q43 51 198 278q117 170 213 267h39q-8 -41 -30 -78l-33 -60q-47 -55 -176 -272q-102 -172 -207 -242q-25 -8 -47 -8q-37 0 -74 18l-63 91 q-2 25 -23 106q-16 66 -14 109q-27 -47 -90 -138q-10 -33 -45 -86t-46 -77q-33 -45 -112 -127h-60q-47 0 -47 47z" />
<glyph unicode="x" horiz-adv-x="632" d="M53 -16q0 31 20.5 52t65.5 54q6 2 6 14q68 41 179 148q-66 158 -66 227q10 41 43 119h45q25 -6 25 -31q0 -14 -11.5 -57t-7.5 -59q-4 -12 -4 -25q0 -16 33 -117q39 29 213 193l63 -15q1 -8 1 -15q0 -43 -31 -56q-29 -23 -80 -74q-31 -14 -68 -53l-61 -62q25 -51 81 -107 l119 -126q-6 0 -12 -1q-57 0 -96 36q-31 23 -88 75l-64 68q-27 -27 -110 -84q-25 -20 -72 -68q-10 -4 -37.5 -31.5t-44.5 -27.5q-21 0 -41 23z" />
<glyph unicode="y" horiz-adv-x="518" d="M-121 -637q106 102 209 301q90 174 131 326q-2 12 -6 26q-8 23 -29 37q-82 53 -129 264q-4 70 -30 250q0 -6 -2 39q0 14 10 15h3q21 0 41 -28q22 -30 23 -54q14 -123 41 -248q35 -164 131 -209q57 123 168 471q43 23 49 25q12 0 23 -13l23 -20q-10 -55 -54 -146 q-39 -78 -131 -337t-104 -281q-86 -162 -172 -287l-94 -92q-29 -27 -38.5 -30t-62.5 -9z" />
<glyph unicode="z" horiz-adv-x="552" d="M-20 10q-4 31 40 64q121 55 287 151q45 27 154 117l16 29q-55 35 -135 35q-49 0 -182 -27q-5 -1 -10 -1q-27 0 -68 28q-6 12 -6 22q0 18 26 25q4 2 15 4q8 -2 16 -2q12 0 38 7t40 5q82 8 129 8q143 0 211 -63q10 -12 10 -31q0 -18 -12 -45l-10 -8l-2 -4q-6 -8 -23 -23 q-2 -10 -12 -16l-21 -9q-2 -4 -4 -12q-20 -8 -62 -42t-69 -42q-41 -29 -131 -76q-16 -16 -65 -41q-29 -6 -64 -34h4q6 0 14 -6q4 0 10 -1q49 0 156 19q53 9 103 9t96 -9q-16 -16 -16 -29q-211 -41 -387 -53l-49 23q-25 12 -37 28z" />
<glyph unicode="{" horiz-adv-x="2174" d="M0 526q-4 -31 20 -39l41 -9q23 -5 62 -19q53 -18 129 -58l63 -30q8 -4 27 -19l-8 -6q-33 -27 -121 -82q-4 -8 -4 -16q0 -31 57 -35q74 -4 219 -14q23 -4 56 -4q-14 -29 -31 -56q-2 -6 -16.5 -22.5t-14.5 -24.5q0 -6 6 -12q-27 4 -29.5 -9.5t-2.5 -25.5q0 -2 -21 -20 l-51 -62q-2 -8 -2 -16q0 -23 29 -33q27 -8 43 2q35 2 157 37q43 12 76 24l18 9q-39 -70 -104 -213l-16 -49q0 -4 2 -13l4 -6l16 -20q47 -2 86 26q63 47 66.5 47t60.5 39l17 10q2 0 2 3q14 4 20 14l29 12q8 6 27.5 14.5t33.5 16.5l27 4q10 -16 8 -18q10 -47 37 -146 q12 -25 47 -72q14 -12 29 -10q29 4 26 4q6 6 19 29q8 6 10 14q31 37 88 121q0 -2 2 0l10 -12l43 -60q31 -39 90 -122q14 -8 31 -9q18 0 17 0h12q14 12 26 27q0 -2 -4 -4l2 22l7 109q8 4 12 10q33 10 53 2q39 -10 59.5 -21t77.5 -32q6 2 13.5 -1t11.5 -3q10 0 37 27l2 38 q-2 20 -15 78l-16 70q-2 12 -4 37l-2 8q66 8 117 -10l30 -13q18 -18 35 -18q2 0 21 10h6l22 23q-4 -4 2 2v16q-4 14 -10 43q-20 70 -55 215l-6 27q47 -6 106 -43l53 -16q27 -8 35 -27h4h6q27 -2 39 20q6 41 0 50q-6 12 -8 14q-61 131 -160 252l64 39l143 98q2 0 17 18 q2 -4 0 2q4 4 8 13l2 14q0 2 2 10v19q-2 2 1 2t-22 28l-24 11q-49 23 -78 32q-63 23 -151 46l2 8q10 37 20 65q20 57 21 51q23 37 22 76q2 -2 2 23q0 18 -37 39q-14 2 -39 4q-27 0 -58.5 -6.5t-78.5 -18.5q-16 -4 -35 -10q-8 -2 -18 -27q14 18 45 19q35 -2 39 0l90 6l37 -4 q12 -2 12 -15q0 -20 -29 -94q-37 -90 -41 -102l-8 -27q-2 -6 11 -26l14 -4q80 -14 180 -56l66 -28q2 0 6 -2v-9l2 2l10 -28q-6 4 -6 2q-8 4 -8 14l2 2l-15 -12q-25 -20 -84 -58q23 12 27 15q0 -2 -170 -111q4 -33 19.5 -49t17.5 -22q53 -72 78.5 -114t64.5 -124 q-27 12 -71 43q-74 43 -140 51h-16l-10 -2l-25 -43q0 2 4 8v-2q16 -72 56 -215q0 -12 14 -71l-51 22q-76 16 -121 8q-4 4 -45 -14l-4 -4q0 -2 -8 -31l4 -18q2 -18 10 -57l24 -113v-19q-4 2 -14 4l-22 9q4 0 -15 6q2 -2 -14 6q-25 20 -59 22l-35 11h-2q-2 2 -13 2l-4 -2 l-18 -4q-25 -6 -35 -15q-16 -12 -31 -43q-4 -41 -6 -110h-4l-6 8q2 -2 -2 4l2 -2q-2 4 -10 16q-16 20 -66 90l-33 45l-32 41l-37 6l-4 -2l-4 -2q-51 -53 -121 -168l4 -6q-4 0 -24.5 30t-16.5 40q-8 41 -33 129q-2 10 -6 23.5t-49 27.5q-10 0 -51 -12q-10 -6 -35 -14 q-10 -8 -42 -24.5t-73 -45.5l-16 -12q-2 0 -6 -4l-7 -3q-12 2 -26 -14l-6 -6q6 4 12 4l-25 -10q-33 -27 -59 -43q18 53 57 131l39 76l19 37l2 6q2 4 4 18v2l-43 29q6 -4 -4 2l-27 -8q-104 -41 -154 -51q-29 -8 -77 -17q-2 0 -17 -2l25 31q6 0 33 53q0 4 10 10q27 35 69 111 l9 20h1q1 2 3 15v2q-18 20 -37 39q2 0 6 -6l-14 2q-74 8 -170 10q-29 0 -82 4l-12 2q25 14 100 74v-2q0 8 2 49l-2 2l-8 6l-4 4q-14 10 -27 16l-39 21l-78 37q-78 37 -162 57q10 4 62 21q94 31 170 51l35 10l16 39l4 8q0 -2 -2 -2l-4 10q-61 98 -145 181q-27 18 -70 55 l82 12q53 2 162 12q25 47 24 93q0 33 -17.5 85t-19.5 76q-10 39 -30 109q-6 16 -15 43q35 -27 105 -70l55 -41q8 -6 31 -18l6 -4h2h-2l-2 2l-29 18l-53 37q-39 29 -113 78v4h-2l8 -4l146 -96q8 -6 27 -19l16 -10h4l-2 -4h4q8 2 27 12l2 8q8 25 18 66q20 57 29 109 q0 -2 -2 -5h-2q2 4 6 15q2 2 2 8h2h2l43 104q8 18 21 52q12 57 20 57q4 0 21.5 -39t44.5 -123q10 -55 36 -162q8 -33 29 -98l14 -31q12 -4 21 -4q12 0 15 10.5t7 12.5l127 223l62 121q4 4 7 9t7 9q6 4 10 -4v2q-2 8 -6 6l2 4q-14 14 -20 -10q-84 -162 -187 -327 q-14 -37 -26 -37t-23 39q-10 33 -18 63q-12 59 -43 174q-6 14 -19 51l-14 54q-8 16 -18 49q-10 18 -21 16q6 6 -2 10t-16 0l-4 -2l4 -2l-4 2l-4 -2q0 -6 -7 -20l-49 -146l33 93l14 55q0 -6 2 -2q2 2 7 20l-5 -4l3 4l-3 -4q-2 -4 -2 -8q-16 -57 -73 -211q-8 0 -13 -16 q-6 -23 -6 -25q-14 -55 -43 -141q0 -4 -2 -15l-12 9l6 -4l-12 8q-51 33 -146 104q-37 25 -53 25q-18 0 -22 -23l24 -86l51 -186q-4 12 -32 141q18 -63 43 -182q-4 10 -11 35q4 -43 13 -111q-47 0 -144 -6q-35 -2 -69 -6q-43 -4 -74 -21q2 -39 39 -63q47 -33 53 -43 q31 -35 90 -109q12 -18 39 -55q2 -2 2 -6h-4l-35 -10q-113 -29 -135 -37q-76 -25 -131 -62zM588 1421q25 49 53 138l12 47q-12 -48 -65 -185zM1001 1399q4 4 21 37q4 12 31 55q20 35 20 47q16 -31 37 -100l14 -56q-4 0 -6 2l2 -12q6 -43 31 -127q4 -4 6 -23.5t33 -23.5 q-6 6 -12 10q-23 23 -29 54q-8 45 -16 59q4 8 -3 27q-8 27 -8 30l2 2v-2l4 -12v-2q20 6 21 10q0 4 -23 8v2q-8 49 -34 134q-2 4 -15 26l-6 -2q-2 4 -4 6q0 -2 4 -6h-2h2v-2q-2 -6 -6 -14q-48 -88 -64 -127zM1073 1550l4 -6q12 6 0 6h-4zM1116 1391q-10 -4 2 -7zM1126 1380h2 q6 0 7 -4q2 -4 -5 -6zM1174 1249q0 -4 5 -16t5 -19l-6 -6l6 6q-2 -4 -4 -6q6 0 4 9l20 28q-8 -12 -20 -28q-6 12 -10 32zM1180 1208zM1190 1196l2 2h-2v-2zM1192 1198l4 -2l31 45l65 90q59 82 115 101q-61 -16 -182 -195q-6 -4 -33 -39zM1204 1245l35 43l-8 -8l8 12z M1239 1288l18 23zM1239 1292l21 29l-13 -14zM1257 1311l5 6q-3 -4 -5 -6zM1329 1399l25 18q-17 -10 -25 -18zM1354 1417l22 18q14 11 29 13q-18 -2 -51 -31zM1407 1432h4h-4zM1407 1448h3h7h2h-8h-4zM1409 1434l4 -2l12 -9q-2 6 -4 9q4 4 2 14h-2q0 2 -2 2h-2q-2 -4 -8 -14z M1415 1432h2h-2zM1421 1446h2q2 -2 4 -2q-2 2 -6 2zM1425 1423l2 -2q27 -14 23 -67q2 25 -2 39t-21 30h-2zM1446 1319q4 16 4 35q-2 -12 -4 -35zM1466 1169l39 13q37 10 39 16l-31 -10q92 33 152 35h2q4 0 31 6q-109 -3 -232 -60zM1677 1096l2 2q2 8 29 51l-2 -2 q-11 -16 -29 -51zM1698 1229h10h12q-4 2 -10 2q-4 0 -12 -2zM1708 1149q2 0 21 27q12 8 8 32q-4 23 -11 23q-2 0 -2 -2h-4q8 -2 11.5 -11.5t3.5 -17.5q0 -10 -11 -26q-16 -23 -16 -25z" />
<glyph unicode="|" horiz-adv-x="339" d="M117 -152q-4 248 49 1088q16 254 31 371q4 39 32 112q14 37 43 41q25 4 54 -28q14 -51 -15 -115q-18 -41 -6 -78q-29 -63 -33 -184q-4 -141 -16 -189q-8 -76 -20 -243q6 -12 6 -23q0 -10 -6 -20q0 -18 -17 -252q-10 -150 -2 -254q-10 -18 -10 -54q0 -14 3 -40.5t3 -40.5 q0 -29 -6 -45q0 -53 6 -130q2 -49 16 -131q-2 -37 29 -100q8 -37 8 -61q0 -49 -33 -43q-92 84 -116 305q2 5 0 114z" />
<glyph unicode="}" horiz-adv-x="1042" d="M96 539q8 53 41 106q20 20 47 41q66 51 148 53q14 2 39 0l69 -16q47 -16 76 -74l2 2q8 25 23 39q4 6 10 10q45 41 113 41q66 0 124 -24q33 -14 50 -37q86 -76 86 -207q0 -35 -4 -59q-20 -125 -209 -195q-49 -18 -105 -47q-4 -2 -35 -25l-18 -12v-22q-8 -6 -16 -7 q-4 0 -9 3l-6 -9q-2 -4 -8 -14l-8 -6h2l2 2v-2h-2q-4 -6 -12 -6q-10 0 -15 8l-2 -16q-10 47 -6 53l-6 4q-4 4 -6 8q-12 10 -37 29l-4 2q-6 2 -10 6q-23 10 -103 51q-51 27 -121 96q-33 33 -57 88q-4 16 -12 39q-25 68 -21 97zM197 492q6 -63 34 -99l68 -67h4q31 -16 88 -54 q55 -18 51 -18q23 -4 68 -31q8 -8 8 -14q0 -8 -12 -16h-2q6 -8 18 -21q23 18 74 49q55 23 121 66l41 28q6 6 24 27q74 82 68 180q0 12 -12 45q-20 39 -45 58h-2q-45 35 -99 34q-31 0 -71 -12q-27 -18 -56 -41q-23 -45 -16 -69q4 -4 4 -9q0 -10 -21 -14l-2 -2q-8 -2 -14 0 q-10 8 -10 14l-2 4q-4 8 -4 15v4q-16 14 -11 35q-4 8 -34 34l-21 15q-20 4 -43 12q-70 0 -86 -6q-47 -12 -80 -49q-18 -33 -26 -72q2 -8 -2 -26zM485 633l2 -2q0 2 -2 2zM584 678q14 6 80 22q-49 3 -80 -22zM823 324q63 53 64 147v8q-6 -98 -62 -149z" />
<glyph unicode="~" horiz-adv-x="589" d="M51 1499q0 98 86 211q4 0 13.5 5t9.5 14q51 39 94 34q55 -16 96 -104q14 -14 25.5 -56t30.5 -53v-16q0 -4 -5 -6l5 -8q2 -16 10 -13l4 -22l4 4v-8q18 8 22 8q49 35 103 135q31 55 51 55t29 -63l-49 -86q-25 -20 -62 -67.5t-67 -63.5q-53 4 -84 55q-12 20 -43 100 q-10 27 -33 77t-58 55q-51 -18 -86 -89q-10 -20 -41 -120q-6 -23 -30 -29q-25 -6 -25 51z" />
<glyph unicode="&#xa1;" horiz-adv-x="1251" d="M23 1296q-23 94 16 191v10q102 246 358 336q104 37 205 37q90 0 182 -31q6 -4 13 -2q86 -41 116 -61q68 -43 97 -84q72 -76 71 -168q-2 -4 -8 -23l-4 -12h6q4 4 12 -2q18 -12 27 -17q12 -10 14 -26q6 -6 23 -68q2 -92 -131 -196q-23 -14 -70 -33q-14 -4 -39 -4h-14 q-8 0 -20 -2q-6 8 -25 4q0 47 18 49q68 -6 127.5 34t89.5 105q10 23 11 45q0 33 -27 60q-4 2 -8 -2l-6 -4q-12 -6 -23 -5q-29 -16 -96 -47q-12 4 -35 21v14q0 14 29 27l18 8q20 12 37 14q41 37 41 86q0 102 -168 205q-74 45 -147 55q-4 0 -8 5l-74 12q-23 4 -68 -4 q-27 2 -63 -6l-66 -15q-18 -6 -67 -33q-14 -6 -52 -26q-23 -8 -51 -35q-45 -41 -49 -43q-4 -10 -14 -12q-12 -14 -70 -88l-16 -33l-25 -55q-18 -33 -24 -107q-10 -137 108 -215l66 -25q33 -12 57 -45q-4 -10 -16 -10q-14 0 -23 4q-14 12 -48 18.5t-48 16.5q-106 41 -139 182 zM217 1255q37 -8 55 -34l9 -13q14 -23 34 -22q25 8 70 31q25 -18 43 -19q8 0 14 4q27 0 78 -16q25 -2 60 -29h14q-10 -43 -33 -39q-61 29 -110 29q-14 0 -45 -4q-10 4 -19 12l-4 4q-14 -8 -47 -14q6 -20 6 -45q10 -45 23 -135q0 -8 6 -23.5t6 -23.5t-2 -15q0 -25 12 -55 q2 -8 2 -31q-2 -10 6 -14q0 -25 29 -180l14 10v6q0 10 -4 31q-4 47 -2 55q-4 53 -2 96q0 41 4 148q2 33 2 55q-2 27 -6 96q0 14 27 15q16 -182 14 -211q-4 -14 2 -39l-2 -45q6 -8 2 -25q4 -8 0 -14q0 -12 4 -46t2 -53q2 -6 4 -18q0 -18 9 -51q0 -6 5 -20.5t5 -22.5v-2l6 -6 q4 -2 10 -13q10 0 14 2l17 4q-6 16 -4 23q-12 61 -13 238v116l3 -8q0 2 2 8v27l24 -2q0 -4 6 -12q4 -10 0 -21q2 -4 2 -24q4 -10 0 -41q2 -47 9 -144q8 -39 16 -117q4 -6 4 -18v-6q0 -10 20 -10h13q37 10 145 26q12 0 41 8h6v64q-6 82 -24 299l-15 182q6 4 12.5 15.5 t16.5 11.5q8 0 21 -12q2 -70 16 -201q4 -29 12 -105v-16l-2 -2q4 -16 8 -41q0 -16 4 -29q0 -55 15 -153q-2 -18 -2 -33q2 16 12 29q2 6 33 43q2 4 10 12l10 12q14 18 25 23q4 12 112 108q23 -10 23 -26q0 -12 -16 -25q-6 -4 -17 -16l-108 -119l-21 -39q-12 -25 -8 -43 q-8 -18 -31 -12q-6 2 -10 4q0 -23 -22 -23q-16 0 -29 21l-6 8q-2 4 -6 4t-9 -2q-12 0 -35.5 -4t-35.5 -4q-39 -8 -170 -23q-39 -4 -127 -34q-4 0 -8.5 -19.5t-16.5 -28.5q-4 -18 -4 -32q0 -23 8 -33q-2 -6 0 -14.5t0 -16.5q12 16 15 19q12 10 30 12q4 -4 9 -12q-4 0 16 -15 q-4 4 -4 6h2q4 -4 6 -8l-6 -16q-4 -16 -12 -23v-6h-21l-8 8v-2l-4 2q-12 0 -21 19q0 2 -4 8l-2 -2l6 -14q2 -14 -2 -25l-16 -4h2v-2l-2 -2q-6 -4 -12 -4t-13 4q-12 12 -14 16l-4 8q-2 4 -8 13l2 16l-2 -2q-14 -23 -52 -27q-2 -8 -10 -16q18 -4 39 -6q23 -8 31 -45 q-82 -6 -88 -4l-25 -2q0 6 -10 51q-2 6 -2 12q0 12 6 21q20 59 72 75q18 6 37 -20q2 -2 6 -4v6q-2 8 -2 20q0 33 16 99l12 12q-12 27 -28 86q-4 4 -4 27q-12 41 -17 96q-6 63 -10 98q-12 102 -33 217q2 16 -6 47t-8 45q2 4 4 7l-10 -2q-10 6 -31 24q-31 18 -41 96zM276 563 l11 31q31 -23 84 -74h14v-16q4 -29 -23 -29q-20 0 -28 19l-2 4v2q-2 0 -2 2q-10 18 -43 49q-1 8 -11 12zM428 606q8 -8 4 -18v-2q16 -33 21 -33l-7 31q-4 16 -6 26h-12v-4zM430 137q14 10 27 10q8 0 43 -36l41 -31q96 -25 121 -21q12 -6 43 -2q25 2 40 0q102 23 193 58 q29 16 64.5 40.5t54.5 51.5q57 84 57 145q0 27 -10 51q0 8 -7 23.5t-7 22.5q0 14 18 26q29 0 47 33q0 41 -14 47h-11q-8 0 -12 -2q-10 0 -12 -6q-8 -8 -25 -15q-6 -2 -8 -14q-10 -2 -16 -10q4 -8 -2 -41q-41 4 -54 39q0 8 3 16q-14 -25 -39 0q-4 18 4 37q14 29 14 33 q45 68 111 59l8 -24q-23 -6 -49 -41q-4 -2 -15 -15l13 9q55 33 84 32q14 0 28 -6q47 -51 47 -106q-6 -55 -61 -78v-6q12 -29 12 -62q0 -45 -26 -112q-16 -41 -95 -136l13 23l-4 -4q-12 -12 -39 -27q-16 -8 -39 -24q-10 -4 -46 -19.5t-57 -15.5q-88 -37 -241 -33q-8 8 -21 6 h-20q-100 18 -150 92q-10 13 -6 33zM483 262q6 23 33 14q8 -12 21 -34q16 2 45 10q10 8 24 4q18 -2 25 -2q10 -16 10 -29q0 -10 -4 -16q-14 0 -31 -4q-45 -16 -74 -17q-12 0 -20 2q-35 52 -29 72zM676 342q0 12 8 23q4 2 6 2l2 2l2 4q10 12 27 10l20 -18q2 -6 2 -13 q0 -12 -8 -20l-4 -4q-18 -18 -29 -15l-8 2q-8 2 -16 2v13q-2 8 -2 12zM719 109q-4 18 6 28q12 4 33 10q12 8 35 25q29 -12 20 -35v-2q-4 -6 -12 -20q-16 -12 -31 -25q-8 -4 -18 -4q-12 0 -29 6q0 9 -4 17z" />
<glyph unicode="&#xa2;" horiz-adv-x="1355" d="M84 424q0 18 49 78q33 27 105 67q12 12 59 35q10 12 51 39q-16 6 -49 31q-12 6 -55 43l-113 102q-12 14 -12 31q0 4 18 61q47 51 51 58q31 31 64 45q27 33 67 33q160 0 289 -187l4 4q4 2 9 6q-8 43 -9 88q0 203 226 388q84 70 188 98q31 -8 25 -41v-12q-10 -72 -33 -123 q-25 -96 -72 -160q-4 -18 -14 -27q-20 -43 -66 -127q188 178 437 250q8 -2 34 2q45 6 62 -26q8 -33 8 -60q0 -45 -23 -78q-6 -29 -71 -106q-8 -12 -27 -33q-29 -20 -80 -69q-43 -29 -137 -82q121 -8 156 -62q66 -59 53 -143q-29 -109 -209 -146q-84 -4 -149 35 q8 -55 10 -170l-12 -157q-23 -94 -97 -115q-20 -8 -43 -8q-49 0 -90 28q-102 70 -147 228q-4 31 -4 65q0 25 2 51h-2q-102 -37 -160 -36q-78 0 -205 49q-25 12 -82 24q-6 15 -6 29zM150 428q57 -25 174 -57q121 4 188 39q12 10 33 32q-74 45 -74 152q-25 18 -49 18 q-25 0 -53 -18q-8 -10 -31 -18.5t-27 -14.5q-10 -16 -28 -16l-80 -64l-33 -24q-22 -21 -20 -29zM172 854q10 -25 41 -49l57 -49q12 -4 17 -15l2 -6q70 -47 172 -67q14 -10 22 -11q27 68 90 162q-20 -8 -28 15q-20 57 -79.5 105t-117.5 48q-20 0 -106 -37q-54 -37 -70 -96z M532 586q0 -84 64 -97q27 -20 66 -20q20 0 155 43q6 -2 8 8q12 29 41 27q4 -4 8 -4q8 0 17 6l6 6q2 2 4 2q27 23 27 57q0 12 -5 27l-16 41q-6 4 -24 -2h-9q-6 -2 -12 -2q-18 2 -45 39q16 20 49 26q-20 27 -49 37q-4 -43 0 -65q-49 10 -49 49q0 4 2 10v21q-2 6 -4 9t-28.5 8 t-39.5 17l-2 -2q-16 -10 -26 -10q-6 0 -11 2l-4 4q-4 -2 -18 -16l-4 -8q-8 -12 -23 -19l-51 -94q-27 -51 -27 -100zM580 293q0 -115 88 -195q16 -25 67 -55q37 -10 72 0q29 8 49 80q0 16 14 51q12 156 -14 248l-12 43q-123 -49 -197 -49q-20 0 -39 2q-28 -115 -28 -125z M659 950q2 -4 11 -14q2 -2 2 -19.5t10 -13.5q27 6 41 6q10 0 17.5 -2t39.5 -28q14 47 64 131q8 23 76 141q63 143 77 231h-10q-12 0 -20 -12q-57 -14 -119 -70q-8 2 -12.5 -5t-9.5 -10t-5 -5l-4 -2l-4 -4q-8 -8 -16 -12q0 -4 -4 -11q-45 -41 -62 -65v-4q-2 -2 -2 -4l16 12 q-66 -61 -77 -125q-3 -11 -9 -115zM834 829q66 -33 84 -77q49 0 67 12q0 2 2 2h-10q82 25 145 68q18 12 123 96q31 35 86 108q2 10 14.5 39t12.5 47q0 12 -4 23q-2 4 -47 12l-2 -2q-66 -12 -256 -110q-86 -61 -131 -117l-68 -84q-10 -2 -12 -8zM915 502q49 -51 127 -51 q59 0 109 24q59 29 72 80q6 25 -13 68q-27 61 -112 71q-43 4 -142 -4v-2q2 -10 10.5 -33.5t8.5 -40.5q-1 -63 -60 -112z" />
<glyph unicode="&#xa3;" d="M49 63q0 16 6 50t29 108q6 25 47 88q18 27 43 27q16 0 41 -31q0 -6 6 -16l10 51q47 227 80 360q-14 -2 -30 -2q-12 0 -37 4.5t-37 4.5q-23 0 -45 -7q-41 6 -74 39q16 41 49 43q57 4 64 9q31 14 141 26q0 4 27 111l24 100q27 113 51 197q10 43 17 55q23 55 112 55 q109 0 168 -57q33 -31 2 -64q-14 -14 -41 -2q-2 0 -65 37q-47 29 -64 29q-29 0 -47 -61q-27 -94 -104 -426q12 2 30.5 -2.5t26.5 -4.5q66 0 117 -12l20 -22q0 -18 -14 -35q-41 2 -90 0q-51 -2 -109 -10l-41 -199l-30 -162q-29 -143 -29 -156q0 -29 14 -61q4 -4 21 -10 l119 -49q68 -27 125 -27q117 0 252 88q23 14 57 14q14 0 20 -8t-8 -31q-90 -137 -293 -137q-125 0 -268 51q-45 14 -68 23q-6 0 -20 7t-45 7q-33 0 -45 -16q-27 -33 -64 -33q-12 0 -28 6q-23 18 -23 51zM125 102q-6 -18 8 -18q18 0 72 45l2 25q0 20 2 32q2 4 1 11.5t3 25.5 q-8 2 -16 15l-4 6q-2 6 -9 8q-16 -18 -39 -62v-6q-2 -2 -16 -47v-8q0 -4 -1 -11.5t-3 -15.5z" />
<glyph unicode="&#xa5;" horiz-adv-x="1515" d="M59 408q18 35 50 106l79 104q20 23 78 74q6 10 13 13l4 2l2 2l28 22q8 6 17 6q14 0 26 -16q-2 -16 -14 -23l-18 -12q-12 -10 -41 -31q-10 -12 -37 -37l-16 -15q-13 -13 -13 -23q-20 -16 -43 -52l-37 -55q-6 -12 -24 -59q-2 -6 -13 -33v-37q29 2 60 27l69 67 q39 41 58.5 77t77.5 95q14 2 22 -12l2 -2h-2l4 -21q-12 -6 -24 -32q-14 -35 -19 -39q-27 -63 -26 -115q0 -41 16 -74q6 -2 16 4q49 63 144 304q8 6 14 6q12 0 20 -21l7 -6q-2 -33 -11 -102l13 -72q12 -45 41 -53q29 16 47 63q6 49 6 101q-4 18 0 53l-17 80q12 12 23 12h8 l80 -133q12 -12 31 -41l20 -21q16 -10 31 -10q10 0 18 6q14 35 15 70q0 47 -25 90l-18 43q-14 14 -33 57q2 2 9 8.5t16 6.5q6 0 14 -6q53 -72 65 -82q43 -41 93 -39q41 -4 55 12q4 14 0 23q-12 25 -55 57q-49 37 -62 53l-61 66q-2 6 -2 12q0 16 16 21l117 -37q39 -12 65 -11 q76 8 111 50q8 10 0 26q-14 12 -29 17q-20 2 -24 6q-57 0 -49 2q-18 0 -56.5 4t-56.5 4q6 0 12 2h8q-20 4 -30 4l-11 2h2h-2q-25 -4 -28 10l-8 29l131 57q55 27 106 97q14 20 19 30q-4 2 -18.5 -4t-18.5 -6q-35 -6 -92 -35q-14 -6 -50 -26q-4 -8 -18 -13q-20 -25 -49 -24 q-12 27 -8 41q25 16 98 82q25 27 51 80q-55 0 -147 -82q-4 -4 -54 -43q-12 -10 -43 -39q-14 -14 -34 -31v-2q2 0 8 -2q8 -8 28 -47q0 -55 -43 -113q-16 -20 -49 -47h-2l4 2l-2 4l-2 -6v-2q-2 -2 -2 -4q-76 -61 -151 -104q-18 -8 -60 -29q-92 -16 -110 18q-2 2 -11 23 q6 59 56 110q12 14 92 84q14 10 53 41q10 8 51 29q20 23 80 43q4 4 4 12l78 72l90 78q53 47 96 67q10 0 34 8.5t36 8.5q10 0 21 -2q25 -20 24 -72q-4 -10 -22 -35l-7 -8q45 18 80 18q29 0 50 -12q10 -12 10 -24q0 4 -17 -45q-47 -78 -114 -117q-8 -8 -62 -35q96 -6 109 -8 q72 -12 88 -49q23 -51 -2 -76q-78 -63 -150 -64q-43 0 -98 19l8 -8q8 -6 25 -25q14 -8 63 -51q31 -51 31 -68q0 -8 -2 -16q-6 -14 -29 -37q-8 -10 -24 -6h-4q-8 -2 -23 -2q-25 0 -70 6q0 4 -8 4q14 -31 37 -94q6 -49 35 -156q2 -6 24 -141v2q18 66 58 137q6 12 51 62 q23 27 94 98q61 59 88 102q27 31 25 41q8 10 18 11q8 0 17 -11q6 -49 22 -141h2v-18h2q6 -14 4 -19q10 -76 0 -151q-16 -111 -55 -154q-6 -16 -24 -41l-146 -117q-4 -8 -16 -16l-4 -2l-2 -2q-2 -8 -2 -6q-27 -20 -54 -123q-8 -23 -24 -97q-12 -53 -27 -100q-4 -35 -57 -172 q-2 -14 -15 -47q0 -10 -24 -31q-25 8 -25 25q0 10 8.5 26.5t8.5 22.5q94 219 94 434q0 76 -19 109q-16 55 -45 221q-12 59 -39 213q-2 6 -36 94q2 -14 2 -29q0 -25 -7 -51q4 -8 -6 -18l-6 -6q-4 -4 -6 -4l-4 -5q-8 -8 -16 -12q-82 -4 -113 51q-2 6 -14 17q-8 20 -33 57 q0 -20 2 -33q0 -14 -4 -43q-2 -14 0 -43q-18 -57 -41 -78q-6 -12 -35 -30q-8 -4 -16 -4q-16 0 -37 14l-13 10q-20 23 -45 125q-23 -45 -63 -137q-6 -4 -14 -18l-7 -11l-6 -12q-27 -29 -61 -29q-8 0 -19 2q-18 12 -38 54q-2 18 0 55q-4 16 0 47l2 4l-13 -12q-4 -4 -14 -19 q-8 -4 -10 -6l-2 -2l-2 -4q-8 -12 -19 -16l-61 -54q-37 -27 -78 -18q-31 27 -23 107zM406 760h10q68 0 192 86q111 78 129 149v23q-4 0 -8 2h-8q-4 -2 -45 -8q-27 -20 -51 -31q-20 -16 -66 -41l-51 -43l-6 -6q-41 -37 -60 -57q-30 -37 -36 -74zM1038 43q8 -23 23 -70l80 80 q4 4 97 84t101 205q14 59 -14 188q-2 14 -12 52l-2 2q2 -16 -21 -56q-23 -25 -145 -147q-18 -27 -58 -78q-2 -10 -17 -37.5t-15 -42.5q-16 -45 -17 -88v-92z" />
<glyph unicode="&#xa7;" horiz-adv-x="903" d="M-2 29q8 55 57 94l88 70q98 82 99 143q0 16 -4 35q27 16 45 90q-37 -18 -111 -33q-27 -4 -49 -4q-47 0 -88 31q-4 37 33 75l67 58q25 4 60 35q29 27 55 45q78 47 94 61q49 43 39 96q-14 4 -8 17q-4 16 12 32q6 6 4 11q2 31 51 63q33 -41 21 -90q-4 -12 -12 -43 q90 55 262 172q23 -2 39 19q23 -18 22 -37q0 -6 -20 -51q-66 -37 -168 -113q-135 -100 -164 -119q2 -20 -12 -39l-7 -12q-6 -8 -6 -17q0 -6 4 -10q57 10 140 43l139 56q29 10 94 26q18 12 144 33q-14 -12 -33 -49q-2 -6 -4 -10q0 -33 -33 -50l-2 2q-4 -16 -15 -22 q-18 -2 -34 -27l-9 -12q-4 -8 -18 -23h2q27 -8 27 -36q-84 -16 -191 -88q-35 -16 -92 -62.5t-88 -62.5q-6 -6 -57 -43q-27 -18 -11 -39q12 -23 46 -56q29 -4 112 41q51 16 152 60q29 12 102 28q0 -20 2 -41q2 -10 39 -36h-37q-92 -127 -164 -154q-4 -16 -55 -49l-2 -2 q63 -35 100 -31v-35q-14 -2 -28 -2q-53 0 -113 29q-20 -14 -59 -39q-23 -14 -23 -31q0 -4 2 -12t2 -12q0 -10 -16 -19l-12 -12q-8 14 -46 33q-23 12 -22 30q0 10 8 23q2 29 25 51l43 43q-8 8 -19 21q-18 23 -32 12q-23 -20 -75 -45t-73 -43v-25q-10 -14 -27 -14q-10 0 -22 4 q-4 2 -21 2q0 12 -2 12l-2 5q-72 0 -84 2q-47 8 -61 47zM121 57q27 10 34 14.5t17 18.5q-18 -8 -51 -33zM174 94l2 2zM203 520q27 4 100 37q20 61 21 51q-43 -20 -121 -88zM254 113q25 6 61 28q-20 41 -34 41q-23 -18 -27 -61v-8zM356 444q109 53 205 113q57 4 109 43 q20 20 41 39q-27 -10 -70 -23q-10 -16 -37 -16h-10q-72 -37 -135 -55q-12 -6 -78 -47q-35 -21 -25 -54zM473 117l4 -4l2 -4q47 4 117 71l-8 -4q-18 -10 -41 -10q-6 -10 -27 -14l-4 -2q-10 -16 -41 -33h-2z" />
<glyph unicode="&#xa8;" horiz-adv-x="440" d="M39 1233q0 57 47 57q16 -4 31.5 -9t19.5 -24v-28q-6 -59 -63 -66q-31 18 -31 31q-4 23 -4 39zM319 1229q0 43 37 43q12 -2 24.5 -6t14.5 -19v-22q-4 -45 -49 -49q-23 14 -22 22q-5 19 -5 31z" />
<glyph unicode="&#xa9;" horiz-adv-x="1402" d="M-158 817l11 14q-14 147 79 299l45 15q6 -37 -16 -91.5t-16 -78.5q-27 -94 -27 -205q0 -141 45 -317q23 -29 52.5 -107t60.5 -110q43 -33 61 -82q225 -213 496 -213q293 0 598 278q186 170 186 465q0 242 -147 430q-25 31 -146 164q-287 172 -563 172q-295 0 -432 -225 q-104 -129 -106 -297q4 -51 -3 -154q8 -8 9 -20q0 -10 -9 -27l11 -10q6 -61 32 -219q-33 33 -55 80q-51 168 -51 321q0 215 109.5 373t310.5 229q119 20 215 21q127 0 215 -29q72 -10 248 -80q31 -12 155 -92q287 -238 287 -637q0 -127 -24 -211q-51 -170 -222 -328 q-301 -276 -645 -276q-127 0 -225 43q-33 0 -109 47q-16 8 -43 16q0 16 -18 23h-6q-4 2 -8 2q-102 66 -191 197q-12 10 -26.5 38.5t-24.5 36.5q-41 57 -64 148l-38 155q-15 144 -11 242zM301 559q98 473 350 615q100 -16 127 -103q6 -18 -6 -35.5t-33 -17.5q-10 0 -23.5 11 t-23.5 11q-6 0 -14 -4l-74 -67q-43 -39 -55 -80q-33 -41 -74 -150q-41 -57 -49 -141v-152q25 -88 82 -96q16 -2 41 -2q76 0 168 47l157 82l5 2q12 10 30 10q10 0 25 -4q0 -53 -45 -90l-68 -59q-113 -94 -258 -94q-76 0 -147 32q-115 74 -115 285z" />
<glyph unicode="&#xaa;" horiz-adv-x="550" d="M14 10q0 14 11 123q6 72 6 119q-4 18 -4 37q0 43 36 114l50 279q35 170 77 268q12 27 35 27q33 0 62 -37q8 -25 -19 -41q-6 -6 -6 -10q-55 -137 -100 -391l71 39q76 37 142 36q31 0 59 -8q23 -41 17 -61q-18 -16 -61.5 -18.5t-55.5 -12.5q-182 -41 -213 -194 q-4 -59 52 -118t118 -73q43 -6 119 -37l4 -12v2l2 -2l4 -2q8 -8 8 -14q0 -10 -18 -21q-4 2 -91 10q-55 6 -88 25q-66 18 -127 72q-6 -12 -8 -70q-2 -49 -26 -76q-40 -6 -56 47z" />
<glyph unicode="&#xab;" horiz-adv-x="3160" d="M51 -29q0 6 6 13q29 12 54 6q8 0 12 -2l254 -4q102 4 295 8q23 0 170 22l-68 -16q82 4 139 2h78q43 0 70 -2q4 2 39 0q84 -2 100 -4q51 -6 96 -25q27 -23 33 -47q4 -2 10 -4q6 -12 7 -20q0 -6 -3 -13q-16 -14 -51 -30q-4 -4 -69 -27q-18 -6 -86 -16q-4 0 -23 -5 q-12 -2 -20 0q-51 -4 -88 3q-6 -4 -11 -5q-6 0 -10 5q-49 0 -111 8l-30 4q-12 2 -154 16v2l-51 6q-33 4 -127 19v2l-82 14v2q-8 0 -12 2q-12 2 -56 6v5q-59 12 -180 34q-16 0 -51 17q-20 2 -63 10q-17 4 -17 14zM354 -63q8 2 25.5 -2.5t24 -4.5t10.5 -4q23 0 39 -6 q8 -2 12 -2l217 -37q20 -4 121 -12q33 -2 93 -10.5t87 -8.5h29q4 -4 6 -2h6q6 2 8 0q35 4 123 9q39 2 29 2q41 10 110 45q-8 25 -41 35q-20 4 -32 8q-158 16 -363 12l2 -2h-63q-39 -2 -117 -8q-6 0 -8 2zM1415 -100q-8 74 86 96q12 4 41 12q94 4 115 -33q27 -51 -8 -96 q-6 -8 -23 -18q-2 -4 -16 -13q-45 -16 -68 -16q-20 -10 -53 0q-60 19 -74 68zM1452 -96l10 -13q12 -12 21 -14l4 4q2 4 6 8q18 -2 23 -12l2 -6q61 0 79 20q4 0 23 21q0 4 4 8l2 2q0 33 -2 35l-37 14l2 2h-6l4 -2q-72 -2 -125 -41q-16 -12 -10 -26zM1724 -61q0 10 11 22 q12 -4 22 -14q2 8 8 10l4 6q57 25 93 25q12 2 30 6q113 10 142 10h338q29 0 211 -6q43 -2 155 -8q20 2 41 -4q29 4 82 -2q61 -8 84 -9q57 2 78 -4q10 -8 10 -22q0 -6 -2 -15q-8 -4 -61 -10q-84 -10 -74 -10q-8 -2 -23 -4q-2 0 -137 -16l-190 -25q-63 -12 -230 -37l-198 -25 q-14 0 -52 4.5t-59 2.5l-2 2q-10 0 -29.5 3t-29.5 3q-66 16 -154 47q-6 2 -20 12q-29 8 -39 33v6l-2 2l-2 4q-5 7 -5 13zM1796 -70l2 -2q0 -4 2 -8v-6q10 -4 31 -14l106 -33q27 -2 84 -10q86 -12 232 6l12 4q8 -2 21 0q18 4 22 4q23 0 64 8q23 2 60.5 8.5t115.5 22.5h12 q20 0 29 4q57 8 118 14l84 15q8 0 17 2q-39 4 -135 10l-334 6q-6 -2 -10 0q-66 2 -199 2q-20 0 -64 -2q-4 2 -24 2h-10q-37 0 -205 -22q-11 -5 -31 -11z" />
<glyph unicode="&#xac;" horiz-adv-x="1806" d="M57 371q0 47 17 80q25 63 57 120q2 6 10 15q49 74 111 131q14 18 33.5 30.5t50.5 38.5l8 2h-2q8 8 10 9l80 47q4 0 57 24q12 8 23 11q23 10 63 30q27 8 95 33q47 16 110 31q18 4 51 12q119 12 127 12q59 0 103 -24q4 -8 29 -12q10 0 14 -3q23 -4 65 -6q61 -12 84 -12h11 q16 0 24 -8q14 0 41 -10l4 2q6 4 15 -4q23 0 43 -15q6 -4 6 -2q12 0 18 -4l8 -4q-2 0 -2 -2h13q14 -2 41 -21l18 -6q31 -25 74 -41q4 -2 20 -20l2 -4q6 -6 8 -6l9 -15q2 2 2 6q14 -12 39 -41l-2 5l4 -7q8 -4 12 -14t16 -18l-4 -4q6 -6 8 -11l-8 9q47 -80 47 -162 q0 -68 -30 -129l-2 -4q-4 -12 -15 -23l-4 -6q0 -2 -4 -4v-4q-18 -39 -84 -80l-2 -4q-4 -8 -16 -10l-9 -9q-10 -2 -24 -22q-12 0 -32.5 -13.5t-24.5 -15.5q-18 -6 -50 -24h-12v-2l-2 -3q-10 -2 -8 -2q-8 -2 -25 -16l-10 -2q0 -12 -12 -8q-6 -6 -25 -15q-4 -4 -45 -30 q-4 -4 -22 -19q-10 0 -29 -18q8 -2 20 -8q-23 4 -26 4l-15 -15q4 10 9 15q-10 0 -15 -2l-4 -4q-20 -10 -24 -11l-4 -2v2l-7 -8q-4 2 -15 -5t-15 -7q-18 -12 -39 -12q-33 -14 -72 -25q-29 -14 -80 -18q-23 -10 -57 -11q-10 -6 -53 -10q-6 -2 -37 -8q8 4 10 4h-74 q-16 -2 -57 -2h-60q-37 0 -172 27q-6 -2 -18 0q-16 4 -21.5 5t-50.5 17q-131 49 -180 100q-51 37 -94 132q-25 74 -25 133zM94 350l2 -6v-10q4 25 8 53q0 23 7 33q0 6 6 18.5t6 22.5q0 -10 29 69l41 68q4 4 9 11t7 9l2 7q-72 -90 -94 -172q-23 -33 -23 -101v-2zM123 287 q2 -4 2 -6v-2q12 -78 45 -115q88 -102 231 -133q12 -2 95 -19q33 -2 90 -10q10 0 55 -6q31 -4 55 0l2 -2h33q12 4 21 4h55q47 4 133 16q16 8 125 35l4 2l29 12q12 4 20 5q20 6 56 28q8 -2 12 0l2 4l22 9l23 14q-4 0 -64 -17q-18 -4 -67 -18q-25 0 -41 -10q-18 -6 -27 6v-2 l-2 4q-2 2 -2 6q-10 -2 -10 -4q0 -4 8 -12q-20 -4 -53 -13h-39q-18 -6 -59 -6q-6 -6 -21 -2q0 2 2 4l-18 -2l2 -4h-25q-10 0 -14 -4q-31 -4 -78 -8q-137 -10 -272 16l-37 13q-25 8 -41 12q-4 2 -62 33q-182 98 -170 295q0 4 2 10l-10 -21q0 18 -8 -51q0 -20 -4 -59v-2z M182 397q2 6 4 15.5t13 44.5q25 82 102 178q27 33 72 78q6 4 18 16l-10 -4q-51 -35 -115 -109q-31 -37 -56.5 -102.5t-27.5 -116.5zM219 303q14 -72 80 -127q55 -59 219 -84l2 -2q68 -10 113 -8l2 -2q41 0 123 4q18 2 55 10q18 -4 27 4q51 6 100 19q8 -2 45 12h-6 q53 10 68 18l16 7q8 2 12 2q12 4 33 14q8 -2 21.5 6t18.5 9t11 3l10 7q37 23 68 28q6 2 61 35q190 111 238 246q10 29 10 63q0 59 -26 107q-14 27 -52 63q-72 74 -190 115q-4 2 -35 12q-10 4 -131 27q-8 -2 -18 0q-14 4 -19 4h-2l-6 -2q-10 -2 -16.5 1t-22.5 3 q-49 0 -164 -16q51 10 101 18h-4q-47 0 -99 -4q-10 0 -45 -10q8 0 -90 -15q-25 -4 -96 -28q-41 -14 -68 -31h-2q-27 -18 -82 -51q-12 -14 -28 -25q-23 -18 -72 -71q-8 -8 -21 -23q-39 -45 -88 -119l-32 -69q0 -8 -5.5 -19.5t-5.5 -17.5q-10 -20 -8 -56q-4 -25 6 -75 q-4 16 -6 20v-2zM635 893h2q16 4 98 33q-27 -6 -55 -17q-12 0 -25 -10q-8 2 -18 -4zM1036 92l11 -6q0 -2 -3 -4q16 2 68 12h-63q-3 0 -13 -2zM1081 119q14 4 37 8l25 6l82 25l4 4q6 0 19.5 5t19.5 3l78 31q20 14 57 53q6 2 16 8l4 4q6 10 15 13q63 70 96 137l-2 -2 q-20 -29 -62 -76q-6 0 -6 -4l-2 -4q-4 -10 -14 -11l-29 -22q-6 -14 -22 -21l-6 -4l-9 -8l-26 -10q-25 -20 -49 -31q-14 -4 -35 -26q-8 0 -17 -4l-4 -3q-6 -10 -16 -6q-12 -4 -35 -20q-6 -2 -14 -2q-8 -12 -21 -12l-18 -9h-6zM1266 893l2 -2h4zM1399 874l2 -2q18 -10 26 -16 h5l28 -27l2 5q6 -8 17 -19l10 -8q74 -74 96 -152q2 -4 8 -20q4 -27 11 -80q0 -12 -11 -78q-2 -10 -8 -23.5t-6 -19.5q-37 -84 -61 -108q-8 -8 -9 -17q-18 -20 -57 -59q37 20 84 49q12 10 29 23l24 18l31 31q20 27 55 84q2 8 8 20q10 33 11 70q0 47 -17 90q2 6 -2 6l-2 4 q-4 10 -16 33q-6 6 -10 20q-16 16 -19 27l-2 4l-6 4q-2 6 -12 8l-4 9q-6 8 -25 20q-6 10 -12 12l-8 6l-7 7q-35 23 -79 49q-39 20 -74 30zM1647 743h2h-2zM1647 745l2 -2z" />
<glyph unicode="&#xad;" horiz-adv-x="677" d="M37 492q18 18 82 18q23 0 133 -6q102 -6 178 -4q31 0 86 -12.5t80 -12.5q29 -12 45 -61q-16 -51 -86 -47q-18 16 -45 20h-51q-16 6 -58.5 2t-66.5 10q-25 -2 -51 -2q-94 0 -162 21q-84 25 -84 74z" />
<glyph unicode="&#xae;" horiz-adv-x="1064" d="M2 758q10 10 25 10q10 0 22 -4l4 4q14 31 39 33q68 35 207 53q8 74 33 115q2 16 12 45q27 45 27 104q0 86 -49 178q0 57 28 72q20 4 35 -29q-6 -16 -6 -32q0 -10 29 -95q12 -25 12 -53v-4q4 -2 4 -8q2 -27 -14 -103q-4 -18 -4 -43q-8 0 -8.5 -10t-2.5 -16 q-41 -63 -41 -105v-4q4 0 4 -8q31 0 91 6q8 37 6 84q-4 66 -6 86q10 96 14 111q6 55 31 104q31 123 12 189q-8 31 -53 88q-12 8 -13 24q0 16 19 21q37 -10 61 -55q16 -33 21 -37q25 -88 24 -150q0 -72 -30 -121q-31 -68 -31 -166q0 -29 2 -86v-86q18 0 74 -12q39 -8 104 -51 l2 -8v2l6 -4q4 -2 10 -9v-47q-6 0 -12 2q6 -12 6 -30v-6l9 8q12 12 14 30q16 6 24 15l7 6q33 33 90 33q51 0 82 -39q4 -18 22 -53l25 -121q0 -2 4 -35q2 -18 0 -35q4 -27 -2 -70q-8 -53 -8 -69q-4 -86 -76 -131q-35 -16 -72 -17q-49 0 -80 29q-4 8 -30 37q-20 23 -21 43 q0 8 2 16l-14 -45q2 -14 -10.5 -43.5t-8.5 -48.5q-16 -14 -26 -45q-12 -37 -21 -47q2 -29 -26 -51l-11 -8q-6 -8 -14 -9q-23 0 -23 23q16 59 70 170q4 29 21 84l-9 10q14 8 17 29q0 4 4 12q31 92 24 223q-12 37 -20 113q-6 -12 -27 -19q-4 4 -10 5q-8 0 -18 -9 q-20 4 -57.5 -4t-53.5 -6q-113 -31 -272 -24q-45 10 -135 28q-2 -4 0 -20q4 -18 4 -23q14 -49 12 -61q10 -29 17 -94.5t20 -96.5q16 -199 125 -319q8 -10 20 -19q4 14 21 25q4 0 104 6q63 4 92 31q8 2 17 2q23 0 22 -27q0 -10 -8 -20l-4 -8q-35 -35 -94 -37q-86 -2 -103 -8 q-23 -4 -35 8l-4 -6q-8 -14 -24 -19q-37 12 -62 47q0 2 -36 68q-59 111 -74 198l-10 60l-60 342q-4 4 -4 37zM109 743h4q16 0 43 -14q94 -18 161 -8q94 14 224 31q12 8 20 6h6q6 0 11 8q35 4 61 -23q8 8 18 13q-23 10 -47 28q-39 27 -71 25q-45 -2 -164 -14q-2 2 -4 2 q8 -14 8 -25q0 -10 -7 -17t-14 -7q-12 0 -24 16l-12 24l-3 3q-29 2 -77 -15q-10 2 -19 2q-10 0 -29.5 -7t-31.5 -7q-8 -12 -41 -16q-10 -1 -12 -5zM166 1608q4 49 35 225q10 59 -25 90l12 31q27 0 58 -43q6 -29 6 -58q0 -35 -15.5 -107.5t-13.5 -111.5q-14 -125 19 -358 q10 -23 15 -72t11 -69q-8 -18 -22 -19l-19 6q-18 25 -22 77t-15 69q-30 240 -24 340zM688 362l2 5q33 0 56.5 -34t35.5 -36q51 -8 92 18q27 27 37 76q4 29 15 84q-6 8 -2 43q-2 8 -2 53q0 31 -17 54l2 4q-18 82 -53 108q-25 -2 -72 -16q-2 -18 -24 -29q-2 -4 0 -10 q-6 -8 -21 -25q29 14 51 15q14 0 25 -6q37 2 49 -39q4 -6 17 -35q8 -18 4 -37q6 -18 6 -41q0 -68 -49 -123q-12 -4 -29 -4q-37 0 -98 16l-2 3q-4 -2 -17 -3l2 -12q-2 -11 -8 -29zM713 520l2 -8v-49l73 -19q10 0 19 5q25 8 24 83l-4 5q0 8 -3 24.5t-3 24.5q-6 16 -22 20 q-14 2 -25 -10q-29 0 -29 -14q0 -6 3.5 -17.5t3.5 -17.5q0 -20 -17 -37q-14 4 -22 10z" />
<glyph unicode="&#xaf;" horiz-adv-x="1191" d="M127 729q12 2 66 4q78 2 276 6q8 2 25 2h192l4 2h17q10 0 47 2h67h25l500 13q8 0 32 2l205 6q6 0 125 -4q96 -4 176 -4h17q8 0 12 -2q23 -6 22 -15q0 -4 -16 -13t-23 -9q-14 0 -36 -2q-31 -4 -39 -4q-35 -2 -52 0q-41 0 -110 -2q-84 -4 -113 -4h-49h-192h-56 q-14 0 -37 -2h-20h-440q2 0 -97 -3h-166h-71h-74q-47 -2 -68 -2h-126q-23 4 -23 29zM1985 772q-6 61 32 133q6 16 27 29q16 -10 16 -25q0 -6 -4 -14l53 -96q31 -61 31 -105q2 -6 0 -12v-31q-2 -20 -10 -57q-4 -6 -10 -39q-4 -23 -29 -39q-29 25 -49 70q-49 112 -57 186z M2210 737q0 6 19.5 13.5t21.5 9.5q16 0 24 2h52q68 2 51 2h76q25 0 73 2h74h51q74 0 139.5 -2t53.5 -2h55q12 0 33 2h22q74 0 219.5 -4t221.5 -4q51 0 96 2q31 2 82 -2q63 -2 84 -2q31 4 71 0q29 -2 146 2l-2 -2q-20 0 63 -2h62q25 -4 20 -29q-16 -4 -37 -4h-28h-115 q-92 -2 -162 -2h-24h-93h-41q-33 2 -55 2h-4l-6 -2h-283h-24q-20 -2 -35 -2h-62q-20 0 -104 -2t-147 -2h-33h-37q-39 -2 -66 -2h-104q-63 0 -299 10q-49 2 -49 18z" />
<glyph unicode="&#x2c9;" horiz-adv-x="1191" d="M127 729q12 2 66 4q78 2 276 6q8 2 25 2h192l4 2h17q10 0 47 2h67h25l500 13q8 0 32 2l205 6q6 0 125 -4q96 -4 176 -4h17q8 0 12 -2q23 -6 22 -15q0 -4 -16 -13t-23 -9q-14 0 -36 -2q-31 -4 -39 -4q-35 -2 -52 0q-41 0 -110 -2q-84 -4 -113 -4h-49h-192h-56 q-14 0 -37 -2h-20h-440q2 0 -97 -3h-166h-71h-74q-47 -2 -68 -2h-126q-23 4 -23 29zM1985 772q-6 61 32 133q6 16 27 29q16 -10 16 -25q0 -6 -4 -14l53 -96q31 -61 31 -105q2 -6 0 -12v-31q-2 -20 -10 -57q-4 -6 -10 -39q-4 -23 -29 -39q-29 25 -49 70q-49 112 -57 186z M2210 737q0 6 19.5 13.5t21.5 9.5q16 0 24 2h52q68 2 51 2h76q25 0 73 2h74h51q74 0 139.5 -2t53.5 -2h55q12 0 33 2h22q74 0 219.5 -4t221.5 -4q51 0 96 2q31 2 82 -2q63 -2 84 -2q31 4 71 0q29 -2 146 2l-2 -2q-20 0 63 -2h62q25 -4 20 -29q-16 -4 -37 -4h-28h-115 q-92 -2 -162 -2h-24h-93h-41q-33 2 -55 2h-4l-6 -2h-283h-24q-20 -2 -35 -2h-62q-20 0 -104 -2t-147 -2h-33h-37q-39 -2 -66 -2h-104q-63 0 -299 10q-49 2 -49 18z" />
<glyph unicode="&#xb0;" horiz-adv-x="299" d="M6 1110q4 84 33 137q18 72 108 137q20 10 58 23q16 4 28 0l11 2q51 -29 65 -92q2 -12 2 -23q-2 -2 -2 -4q2 -2 4 -8q-2 -4 -4 -6q-2 -63 -26 -102q-4 -4 -7 -11l-4 -10q-49 -61 -67 -80q-51 -49 -105 -55q-10 0 -32.5 5t-43 32.5t-18.5 54.5zM59 1126q10 -39 45 -39 q8 0 20.5 2.5t29 5.5t32 19t33.5 41q70 84 55 154q-4 16 -12 30q0 4 -7 7.5t-7 7.5l-15 6q-8 2 -14 2q-2 -2 -6 -2l2 -2l-6 -8q-4 6 -8 6l-11 -4q-14 -12 -47 -33q-84 -105 -84 -193z" />
<glyph unicode="&#xb1;" horiz-adv-x="1734" d="M18 463q57 35 244 74q76 16 230 69q-43 78 -175 217q-190 209 -194 213l-6 2l-2 23h-2q-4 8 -4 14q0 14 18 21q236 -84 483 -287v10q2 25 -10 82l16 8l-20 17l-76 391q2 8 8 10v2q0 18 25 19q23 0 143 -205l142 -246q35 57 100 152q49 45 129 149l2 4q-2 10 21 45l2 -2 q4 12 16 12q25 0 25 -18q0 -4 -3 -2l7 -10q-4 -70 -54 -353q164 25 263 25q39 0 113.5 -9t111.5 -9q25 0 31 -27q-4 -25 -27 -37l-293 -151l133 -95q80 -53 148 -65l6 -6v2l2 -2h14q49 0 49 -35q0 -20 -30 -27q-197 -45 -310 -53q117 -209 244 -338q16 -16 16 -29 q0 -23 -20 -26l-475 227l-19 6q-2 -63 -14 -223q-10 -141 -10 -223l-2 -10l-15 -21q-57 29 -110 133l-74 166q-16 39 -55 107q-43 -20 -111 -76q-74 -59 -108 -78q-78 -43 -222 -111q-14 10 -28 45l121 277l59 111l-215 59q-123 31 -219 29l-14 16q2 4 2 8q-1 -10 -7 29z M145 459q123 -25 367 -80q20 -6 20 -51l-92 -172q-51 -100 -75 -179l8 3q2 2 31.5 12t95 52t90.5 65q8 8 28 20q20 29 76 61.5t86 32.5h8q27 -45 86 -190q53 -125 97 -185q16 92 8 148q6 14 6 145q0 143 35 154q117 -47 407 -189l-110 156q-88 127 -88 141q0 6 4 19l2 2v-2 q2 14 21.5 15t19.5 12q141 6 215 28q-16 6 -47 23q-47 35 -146 94q-39 18 -114 57l12 11q-14 12 -14 24q0 8 8 16q84 23 285 134q-63 10 -111 10q-188 0 -313 -41q-6 8 -21 24q-14 4 -14 25q53 119 53 264q-119 -117 -174 -229l-37 -72q-6 -2 -10 -2q-8 0 -35 23 q-27 90 -213 362l72 -405q6 -33 6 -62q0 -18 -2 -35l-19 7q-4 0 -2 -3h-18l-10 13v-2q-2 2 -6 10q-43 66 -181 158q-119 78 -215 118q219 -240 340 -397v-14q0 -18 -14 -23q-63 -18 -191 -59q-12 0 -38.5 -8.5t-40.5 -5.5q-46 -8 -136 -33z" />
<glyph unicode="&#xb4;" horiz-adv-x="346" d="M57 1188l37 49q70 90 166 102q2 -6 8 -16t2 -23q-4 -12 -18 -14h-2q-12 -2 -14 -10q-61 -37 -80 -53q-43 -39 -66 -82q-16 -6 -25.5 12.5t-7.5 34.5z" />
<glyph unicode="&#xb5;" horiz-adv-x="1593" d="M82 700q2 8 2 86q0 53 18 82l-2 2q0 33 25 31q12 -4 16 -20v-7q0 -66 13 -120v-4q27 104 30 176q4 12 13 12q4 0 10 -4h2q18 -10 22.5 -35t6.5 -47q-2 -8 2 -22.5t4 -20.5q0 -23 4 -68q29 37 37 68q10 16 17 58t15.5 53.5t22.5 5.5l4 -2q4 -12 10 -33l-2 -12q0 2 2 2v-2 q4 -14 4 -45l4 16q-2 -63 -16 -178q-4 -16 -47 -64q2 -10 4 -26q-4 -37 -16 -119q-2 -12 -4 -49l-7 -4l3 -4q2 -10 -5 -19q2 -6 2 -27q-2 -10 -3 -29.5t-2 -26.5t-3 -13q4 -8 0 -19q0 -12 -3 -33.5t-3 -33.5v-12q0 -18 -4 -58q2 6 6 15q-10 -63 -10 -82v-29q-2 -14 -2 -19 q0 -18 10 -28q2 -12 -4 -19h-2l2 2l-14 -8q-47 6 -62 51q-4 23 -4 91v106q-10 143 -22 375q-45 18 -60 39q-8 12 -14 71zM127 692q0 -18 4 -41q16 -18 43 -18l16 -8l5 -4q2 0 8 -5q0 -59 -2 -69l16 -242q-2 -16 0 -43q4 -31 4 -41v-24l29 348q-4 12 -4 16v4h2l-2 8l-2 2 q-10 4 -12.5 10.5t-2.5 12.5q0 8 7 16q4 0 4 2v5l4 12q8 4 16 4l4 2l6 6q8 2 11 8q14 16 28 49q2 39 4 66q-8 -18 -43 -70q-10 -10 -32 -26q-14 -6 -23 8h4l-12 8q-4 20 -4 33.5t-2 44.5q0 -6 -2 -10l-2 -2v-6q0 -10 -4 -15v-6l-3 -6h-2l2 -8q-6 -12 -14 -37v-2 q-6 -14 -16 -15q-6 0 -15 5h2l-10 4q-4 4 -10 24zM369 987q-2 18 20 86q47 61 109 62q20 -6 50 -29t42 -27q129 -35 203 -35h12q33 -6 96 -16q4 -2 12 -2q47 -10 142 -22q-14 0 32 2q41 2 58 -25q2 -10 -17 -43q-12 -12 -22 -8h-6l-10 -2l-23 8q-20 0 -154 10q-10 0 -53 4 q-57 4 -102 0q-4 2 -13 2h-12q-8 2 -26 -2q-8 2 -45 6q-45 4 -66 -6l-49 -32q-10 -4 -33 -19q-39 -16 -63 -6q-82 31 -82 94zM373 465l2 12v-4zM428 950q29 -18 39 -14q49 16 82 39l2 2l-8 -2q25 14 75 33q41 -4 119 -7h25l-2 3q-35 2 -98 10q-31 10 -93 28q-8 2 -41 25 q4 -8 0 -18l-10 -7h2l-2 -2h-2q-8 0 -20 7l-2 2h-5q-33 -6 -59 -60q0 -14 4 -28zM459 383q0 78 20 123l21 49q31 49 94 104q27 18 74 43q12 6 24 15q33 12 101 28q10 0 67 11q16 2 48 -6.5t44 -8.5q150 -53 166 -209l-2 5q-2 -23 -8 -66q0 -14 -4 -45q2 -2 2 -8q0 -2 -2 -8 q2 -20 -10 -58l-2 13q-4 -41 -5 -29l-6 -4l-10 -13l6 5q-35 -68 -84 -109q-20 -10 -59 -35q-10 -10 -39 -24q-12 -4 -57 -25l2 2l-74 -18q-12 4 -23 0q-53 -4 -81 4q-61 18 -72.5 19t-18.5 9q-41 14 -86 82q-2 12 -12 35q-14 56 -14 119zM498 373q0 2 4 8l4 10 q-8 -43 -4 -69v-13q0 -8 5 -24.5t5 -24.5q27 -70 100 -92q27 -8 90 -16q31 2 95 14l4 4h2h4q2 0 6 4q76 20 148 100q63 74 94 154q8 16 8 25q-4 72 -33 127q-35 66 -67 96q0 -4 -7 -10l-8 -9h-4v2l-8 -10q-6 -2 -12 -2q-12 0 -25 12l14 15l7 4l6 6v2l-2 4q-6 4 -31 15l-59 6 h-15l-80 -19q-23 -6 -80 -37q-47 -27 -98 -84q-6 -6 -10 -14l-6 -6l-17 -33l2 10l-2 -2v-4q0 4 -18 -51q0 -2 -4 -14l-2 -6q0 -2 -2 -11q-8 -36 -4 -67zM1090 1104q-6 41 2 70q2 12 14 36q4 8 47 47l16 9q4 2 21 6q51 14 72 16q-10 4 -23 12q16 10 27 21q25 2 45 -10l41 -25 q80 -49 69 -149q0 -4 -4 -14.5t-2 -16.5q-10 -20 -41 -55q-2 -4 -6 -9q-88 -66 -168 -55q-43 -2 -86 55q-18 25 -24 62zM1135 1114q-2 -47 45 -76q6 -2 34 -8q18 -4 35 0q137 37 137 137q0 47 -75 99q4 -8 4 -21q-10 -2 -19 -2q-10 0 -18 4h-4q4 -10 4 -20q0 -8 -2 -17h-33 q0 18 -12 27q-4 -2 -39 -14q-2 -4 -10 -11l-8 -6l-9 -8l-6 -8q-8 -4 -10 -16l-10 -21q-4 -12 -4 -39zM1284 788q6 27 8 34t19 22q8 -16 8 -31q0 -8 -4 -16zM1307 727l2 6q0 4 4 19q2 10 0 16q8 33 22 74q4 27 47 94q4 8 19 22q47 0 61 -22q2 0 4 -6q0 -31 4 -90q-2 -6 5 -33 q2 -49 -2 -145q-4 -23 -9 -127q-4 -4 -2 -9l2 -6l-6 -123q2 -6 2 -30q0 -29 -2 -95q2 -4 2 -12v-88q2 -6 -2 -16v-2q0 -88 4 -127q4 -4 2 -17l-4 -4q-8 -14 -18 -14q-6 0 -12 4l-7 -2h-10l-16 16l-6 53l-2 9v14q0 193 -39 387q-10 8 -27 31l-4 24q-18 115 -12 199zM1354 618 q2 -27 14 -104v-2q10 -6 18 -12l3 -2l4 -2q2 -20 8 -54q4 -68 16 -200v30q-2 80 2 168q6 133 6 166l2 164q4 25 0 74q-4 51 -4 71q-6 -6 -43 -75l-6 -23q-2 -6 -8 -22q0 -4 -5 -17.5t-3 -17.5v-12q0 -6 -4 -13q-8 -39 0 -117z" />
<glyph unicode="&#x3bc;" horiz-adv-x="1593" d="M82 700q2 8 2 86q0 53 18 82l-2 2q0 33 25 31q12 -4 16 -20v-7q0 -66 13 -120v-4q27 104 30 176q4 12 13 12q4 0 10 -4h2q18 -10 22.5 -35t6.5 -47q-2 -8 2 -22.5t4 -20.5q0 -23 4 -68q29 37 37 68q10 16 17 58t15.5 53.5t22.5 5.5l4 -2q4 -12 10 -33l-2 -12q0 2 2 2v-2 q4 -14 4 -45l4 16q-2 -63 -16 -178q-4 -16 -47 -64q2 -10 4 -26q-4 -37 -16 -119q-2 -12 -4 -49l-7 -4l3 -4q2 -10 -5 -19q2 -6 2 -27q-2 -10 -3 -29.5t-2 -26.5t-3 -13q4 -8 0 -19q0 -12 -3 -33.5t-3 -33.5v-12q0 -18 -4 -58q2 6 6 15q-10 -63 -10 -82v-29q-2 -14 -2 -19 q0 -18 10 -28q2 -12 -4 -19h-2l2 2l-14 -8q-47 6 -62 51q-4 23 -4 91v106q-10 143 -22 375q-45 18 -60 39q-8 12 -14 71zM127 692q0 -18 4 -41q16 -18 43 -18l16 -8l5 -4q2 0 8 -5q0 -59 -2 -69l16 -242q-2 -16 0 -43q4 -31 4 -41v-24l29 348q-4 12 -4 16v4h2l-2 8l-2 2 q-10 4 -12.5 10.5t-2.5 12.5q0 8 7 16q4 0 4 2v5l4 12q8 4 16 4l4 2l6 6q8 2 11 8q14 16 28 49q2 39 4 66q-8 -18 -43 -70q-10 -10 -32 -26q-14 -6 -23 8h4l-12 8q-4 20 -4 33.5t-2 44.5q0 -6 -2 -10l-2 -2v-6q0 -10 -4 -15v-6l-3 -6h-2l2 -8q-6 -12 -14 -37v-2 q-6 -14 -16 -15q-6 0 -15 5h2l-10 4q-4 4 -10 24zM369 987q-2 18 20 86q47 61 109 62q20 -6 50 -29t42 -27q129 -35 203 -35h12q33 -6 96 -16q4 -2 12 -2q47 -10 142 -22q-14 0 32 2q41 2 58 -25q2 -10 -17 -43q-12 -12 -22 -8h-6l-10 -2l-23 8q-20 0 -154 10q-10 0 -53 4 q-57 4 -102 0q-4 2 -13 2h-12q-8 2 -26 -2q-8 2 -45 6q-45 4 -66 -6l-49 -32q-10 -4 -33 -19q-39 -16 -63 -6q-82 31 -82 94zM373 465l2 12v-4zM428 950q29 -18 39 -14q49 16 82 39l2 2l-8 -2q25 14 75 33q41 -4 119 -7h25l-2 3q-35 2 -98 10q-31 10 -93 28q-8 2 -41 25 q4 -8 0 -18l-10 -7h2l-2 -2h-2q-8 0 -20 7l-2 2h-5q-33 -6 -59 -60q0 -14 4 -28zM459 383q0 78 20 123l21 49q31 49 94 104q27 18 74 43q12 6 24 15q33 12 101 28q10 0 67 11q16 2 48 -6.5t44 -8.5q150 -53 166 -209l-2 5q-2 -23 -8 -66q0 -14 -4 -45q2 -2 2 -8q0 -2 -2 -8 q2 -20 -10 -58l-2 13q-4 -41 -5 -29l-6 -4l-10 -13l6 5q-35 -68 -84 -109q-20 -10 -59 -35q-10 -10 -39 -24q-12 -4 -57 -25l2 2l-74 -18q-12 4 -23 0q-53 -4 -81 4q-61 18 -72.5 19t-18.5 9q-41 14 -86 82q-2 12 -12 35q-14 56 -14 119zM498 373q0 2 4 8l4 10 q-8 -43 -4 -69v-13q0 -8 5 -24.5t5 -24.5q27 -70 100 -92q27 -8 90 -16q31 2 95 14l4 4h2h4q2 0 6 4q76 20 148 100q63 74 94 154q8 16 8 25q-4 72 -33 127q-35 66 -67 96q0 -4 -7 -10l-8 -9h-4v2l-8 -10q-6 -2 -12 -2q-12 0 -25 12l14 15l7 4l6 6v2l-2 4q-6 4 -31 15l-59 6 h-15l-80 -19q-23 -6 -80 -37q-47 -27 -98 -84q-6 -6 -10 -14l-6 -6l-17 -33l2 10l-2 -2v-4q0 4 -18 -51q0 -2 -4 -14l-2 -6q0 -2 -2 -11q-8 -36 -4 -67zM1090 1104q-6 41 2 70q2 12 14 36q4 8 47 47l16 9q4 2 21 6q51 14 72 16q-10 4 -23 12q16 10 27 21q25 2 45 -10l41 -25 q80 -49 69 -149q0 -4 -4 -14.5t-2 -16.5q-10 -20 -41 -55q-2 -4 -6 -9q-88 -66 -168 -55q-43 -2 -86 55q-18 25 -24 62zM1135 1114q-2 -47 45 -76q6 -2 34 -8q18 -4 35 0q137 37 137 137q0 47 -75 99q4 -8 4 -21q-10 -2 -19 -2q-10 0 -18 4h-4q4 -10 4 -20q0 -8 -2 -17h-33 q0 18 -12 27q-4 -2 -39 -14q-2 -4 -10 -11l-8 -6l-9 -8l-6 -8q-8 -4 -10 -16l-10 -21q-4 -12 -4 -39zM1284 788q6 27 8 34t19 22q8 -16 8 -31q0 -8 -4 -16zM1307 727l2 6q0 4 4 19q2 10 0 16q8 33 22 74q4 27 47 94q4 8 19 22q47 0 61 -22q2 0 4 -6q0 -31 4 -90q-2 -6 5 -33 q2 -49 -2 -145q-4 -23 -9 -127q-4 -4 -2 -9l2 -6l-6 -123q2 -6 2 -30q0 -29 -2 -95q2 -4 2 -12v-88q2 -6 -2 -16v-2q0 -88 4 -127q4 -4 2 -17l-4 -4q-8 -14 -18 -14q-6 0 -12 4l-7 -2h-10l-16 16l-6 53l-2 9v14q0 193 -39 387q-10 8 -27 31l-4 24q-18 115 -12 199zM1354 618 q2 -27 14 -104v-2q10 -6 18 -12l3 -2l4 -2q2 -20 8 -54q4 -68 16 -200v30q-2 80 2 168q6 133 6 166l2 164q4 25 0 74q-4 51 -4 71q-6 -6 -43 -75l-6 -23q-2 -6 -8 -22q0 -4 -5 -17.5t-3 -17.5v-12q0 -6 -4 -13q-8 -39 0 -117z" />
<glyph unicode="&#xb6;" horiz-adv-x="1916" d="M150 510l10 14q-14 147 80 299l45 15q6 -37 -16.5 -91.5t-16.5 -78.5q-27 -94 -27 -205q0 -141 45 -318q23 -29 52.5 -106.5t60.5 -110.5q43 -33 61 -82q225 -213 496 -213q293 0 598 279q186 170 186 465q0 242 -147 430q-25 31 -145 164q-287 172 -564 172 q-295 0 -432 -225q-104 -129 -106 -297q4 -51 -2 -154q8 -8 8 -21q0 -10 -8 -26l10 -10q6 -61 33 -220q-33 33 -56 80q-51 168 -51 322q0 215 109.5 372.5t310.5 229.5q119 20 215 20q127 0 215 -28q72 -10 248 -80q31 -12 156 -92q287 -238 286 -637q0 -127 -24 -211 q-51 -170 -221 -328q-301 -276 -646 -276q-127 0 -225 43q-33 0 -108 47q-16 8 -43 16q0 16 -19 23h-6q-4 2 -8 2q-102 66 -191 196q-12 10 -26.5 39t-24.5 37q-41 57 -63 148l-39 155q-14 144 -10 242z" />
<glyph unicode="&#xb7;" horiz-adv-x="542" d="M170 582q0 23 35 75q41 10 59 11q37 0 55 -25l-12 -68q-12 -39 -39 -55h-53q-31 6 -37 33q-8 15 -8 29z" />
<glyph unicode="&#x2219;" horiz-adv-x="542" d="M170 582q0 23 35 75q41 10 59 11q37 0 55 -25l-12 -68q-12 -39 -39 -55h-53q-31 6 -37 33q-8 15 -8 29z" />
<glyph unicode="&#xb8;" horiz-adv-x="630" d="M-14 156q0 59 28 163q158 334 353 406q61 8 94 -42t33 -114q0 -29 -9 -51q29 -41 13 -98l-56 -168q-35 -109 -36 -168q-10 -8 -11 -16q0 -4 2 -9q-8 -57 -51 -184q-35 -104 -39 -194h-6q-2 -29 -24.5 -72t-26.5 -70q-43 -117 -55 -143q-39 -84 -91 -123q-14 -6 -26 -6 q-27 0 -62 26v64q25 -18 41 -19q10 0 15 9q98 143 145 348l80 368q-25 -20 -82 -57q-27 -23 -68 -22q-49 0 -104 30q-57 50 -57 142zM74 168q0 -55 15 -74.5t71 -23.5q72 23 153 147l2 8q4 12 -8 17q0 53 68 200q4 25 16 62q25 74 17 98q-8 25 -43 21q-141 -84 -230 -258 l-4 4q-57 -113 -57 -201z" />
<glyph unicode="&#xba;" horiz-adv-x="1642" d="M33 887q0 18 18 47l10 20q20 -4 27 -14l4 -2l2 -2q37 -37 144 -29l4 -2q6 37 6 82q16 8 28 4q10 -6 23 -10q6 -18 -2 -57q0 -8 -4 -21h6q10 0 14 -2h19l2 -2q47 0 112 -8q12 6 31 4q23 -2 31 0q16 -2 47 0t45 -2q16 6 51 6h54q53 0 79 -2q51 4 152 0q47 6 65 2 q16 4 134 4q12 6 22 6h10q2 0 11 2q10 2 34 -2q23 2 68 11q18 0 53 3t53 3q59 0 84 4l3 6q4 14 18 53q35 -12 35 -49v-6h4q14 2 51 -4q0 -8 -2 -12h4q2 -6 2 -11q0 -12 -16 -14h2l-15 -2q-6 2 -18 2h-12l2 -2q29 -4 67 -17h-71v-8q0 4 -13 -88q-2 -23 -10 -78l-2 -4 q-12 -84 -33 -254q0 -12 -6 -41q0 -14 -3 -39.5t-3 -39.5l-2 -7q-10 -166 -6 -209q10 -35 10 -38q4 -12 10 -41l-8 -13q2 0 2 2h2q-2 -2 -10 -8v-10q0 -18 -25 -31q-18 29 -18 107q0 55 -8 168q-4 49 -6 88q-4 -29 -11 -51q-16 -92 -18 -142q-2 -41 20 -110q-2 4 -6 8v-12 q-90 0 -77 -3q-176 -12 -261 -8q-139 6 -192 4l6 2h-18q-20 0 -29 2q-29 -4 -35 -2q-10 0 -20 5h-2v-7h-27v4h-4q-31 -6 -51 -2q-8 -2 -15 0h-6l-2 2q-76 -10 -110 -8l-2 2l-39 -6q-27 4 -80 2q-6 2 -10 2h-15q-2 -2 -4 -2q-18 4 -59 0q-4 2 -37 2q-12 -10 -15 -12h-2 q-16 -4 -18 -4l-2 2q-6 2 -14 12h-11q-6 2 -8 0l2 -4v-16l-8 -6v-4q-4 -10 -12 -11q-6 0 -15 6q-14 25 -45 45q-31 -2 -32 -4h2h-2q-12 2 -21 19q8 23 29 24h49q8 -2 10 -2l6 115q0 6 2 53q8 117 7 133l2 -2q0 35 6 66q0 6 2 37q8 100 8 108l4 6v21l2 10v8q2 18 14 170l7 80 q-12 4 -23 4q-14 0 -22 -8l-15 -29l-20 21l4 22q-51 4 -92 29q-4 -8 -9 -27q-8 -4 -14 -4q-12 1 -14 17zM113 16zM221 57h17l-17 136v-136zM244 330l12 -121l2 -2q2 -23 8 -64q14 -31 15 -43v-28q-2 -6 0 -9v-4q10 0 32.5 3.5t32.5 3.5l205 18q27 6 55 6h2q14 0 39 4 q37 0 316 -10q18 -6 55 -6q2 0 6 -2q147 -14 166 -15l-8 2q57 -4 143 9q12 158 64 340v2q-4 4 4 12q8 82 37 291h2q0 12 10 74q8 25 16 79l-24 2v2h-31q-27 -4 -39 -4h-29h-53q-74 -2 -59 -2l20 -12q-43 12 -53 12h-10q-6 -2 -12.5 -2t-133.5 -4q-76 -2 -131 0l-153 -4 q-8 0 -144 -4q-49 -2 -47 -2q-8 -4 -18 2h-4q-16 0 -45 -6l-74 4q-23 -2 -68 2t-67 2v-10q-2 -20 -11 -62q-6 -59 -16 -176q0 -12 -12 -192q4 -63 0 -86zM1452 633h2v4zM1563 915h8q0 4 2 7h-4q-2 -7 -6 -7z" />
<glyph unicode="&#xbb;" horiz-adv-x="1320" d="M55 733q0 16 13 27q8 2 14 0v4q8 14 20 14q6 0 15 -2l28 -7q20 -5 31 -3q47 0 238 -12q10 0 78 -13q29 4 75 -2q57 -8 76 -8q31 -2 94 -10l119 -12q6 141 -31 268q2 25 35 31q47 -51 131 -164l36 -37l36 -37l194 -205q2 -31 -20 -51l-47 -43q-12 -16 -43 -39 q-16 -23 -41 -51l-6 -4q-10 -6 -10 -19l-59 -66q-28 -32 -52 -87q-8 -18 -18 -37h-11q2 -4 4 -6q4 -14 0 -25q-6 -14 -20 -12q-14 -2 -31 27q-14 51 -18 215q-2 10 -13 22q-20 4 -61 4q-39 0 -94 -4q-68 -10 -199 -22q-27 -2 -86 -15l2 2h-4q-12 0 -45 -6t-49 -4 q-25 2 -72 -6t-69 -6q-8 8 -13 24l2 -28q2 -4 2 -13l-14 -14q-6 -4 -10 -4q-8 0 -12 8h-11q0 88 -12 262q0 -2 -2 -8q2 -4 2 -10v-10q-2 -4 -2 -7v-2l2 -2q4 -14 4 -26l-4 -35l2 -4l-2 -39v-29q4 -25 -2 -47q-2 -12 2 -22q-4 -16 -14 -17q-4 0 -9 2l-4 -4q-6 2 -14 15h2 l-10 4q-14 55 -8 163q10 168 -15 244zM143 711q16 -45 29 -136q-2 -39 6 -157q25 -10 35 -31l2 -4v-4l219 18q14 4 60 9q14 2 102 16q57 10 102 8q12 0 41 6q10 0 68 6q39 4 67 0q6 12 19 13q6 0 12 -2q14 -20 17.5 -50t7.5 -61q-4 -4 -2 -12v-2h4l-4 -41l-4 -2h6v-21 q0 -8 6 -14v-25q20 41 63 103l158 176q14 14 47 53l-4 4l-6 12q0 2 -4 2l-6 7q-10 10 -15 18q-43 47 -133 137q-6 4 -53 58q-16 16 -55 61q-14 16 -41 41q6 -12 10 -59q2 -25 0 -37q0 -10 4 -29q8 -109 4 -147q-6 -6 -35 -7q-8 8 -14 39q-2 8 -10 7q-35 2 -105 12 q-12 4 -45 4l-6 4q-43 2 -131 14h-16q0 4 -6 4v-2q-16 8 -48 5q-133 14 -223 16l-4 -4q-47 0 -119 2v-8z" />
<glyph unicode="&#xbf;" horiz-adv-x="747" d="M-33 193q12 80 119 157l49 49q31 27 62 35q27 29 137 101q16 14 51 38q10 6 131 89q80 55 113 110q-4 10 -15 29l-6 203q53 4 58 8l-7 2q39 0 39 -58q0 -18 -5 -59t-5 -57t9.5 -41t2.5 -62q-37 -59 -135 -121q-111 -68 -145 -106q-14 -10 -109 -72q-27 -12 -80 -49 l-76 -53q-42 -29 -73 -72q-23 -23 -47 -63q23 -92 168 -113q115 -16 137 -16q35 0 90 6l92 10q20 12 49 16q53 20 68 27q39 18 61 41q16 -2 60 -37q-2 -35 -33 -46t-61 -19q-35 -31 -80 -31q-131 -35 -248 -35q-242 0 -358 154zM549 1210q0 14 18 33l6 17q10 -4 15 -5 q6 0 20 11q25 23 39 22q14 0 25 -24h2q23 0 22 -23q0 -14 -12 -24q-4 -2 -14 -17q-53 2 -113 -10q-8 10 -8 20z" />
<glyph unicode="&#xc0;" horiz-adv-x="954" d="M55 10q2 109 84 238q53 86 94 168l-47 16q-25 14 -22 41q-2 20 47 55q12 4 25 4q10 0 33.5 -10t35.5 -6q29 45 90 133q37 39 80 103l72 106q10 25 40.5 69t41.5 68q10 6 18 29t12 29q-4 6 7 39q2 4 4 20q18 4 24 25q10 35 37 37q41 4 72 -15q4 -33 4 -82q0 -47 -4 -112 q4 -27 4 -54q0 -68 -25 -125q0 -29 -6 -84q4 -25 15 -73q16 0 48.5 6t49.5 6q41 0 65 -27q-27 -37 -53 -49h-27q-6 -2 -12 -14q-39 6 -63 -19q-2 -20 -2 -43q0 -63 22 -143l39 -141q16 -27 82 -168q8 -8 8 -19q0 -20 -45 -47q-45 18 -90 123q-16 41 -63 148q-14 68 -31 98 q-4 55 -23 162q-88 -16 -258 -74q-31 -2 -98 -18q-27 -6 -35 -37q-82 -88 -137 -256q23 25 80 73l-47 -127q-14 -2 -21 -24q-14 -57 -92 -57q-16 0 -29 4q2 6 2 10q0 10 -6 14zM422 530q70 23 209 52q27 2 59 24q-8 59 -4 168q4 100 2 144q-94 -126 -266 -388zM612 1462 q0 16 17 33q100 -88 217 -143q16 -20 16 -35q0 -18 -18.5 -30.5t-36.5 -6.5q-25 4 -31 4q-8 16 -63 70q-20 12 -54 43q-16 2 -18 18l-4 4l4 -2l-18 19q-4 6 -5 10q-6 8 -6 16z" />
<glyph unicode="&#xc1;" horiz-adv-x="954" d="M55 10q2 109 84 238q53 86 94 168l-47 16q-25 14 -22 41q-2 20 47 55q12 4 25 4q10 0 33.5 -10t35.5 -6q29 45 90 133q37 39 80 103l72 106q10 25 40.5 69t41.5 68q10 6 18 29t12 29q-4 6 7 39q2 4 4 20q18 4 24 25q10 35 37 37q41 4 72 -15q4 -33 4 -82q0 -47 -4 -112 q4 -27 4 -54q0 -68 -25 -125q0 -29 -6 -84q4 -25 15 -73q16 0 48.5 6t49.5 6q41 0 65 -27q-27 -37 -53 -49h-27q-6 -2 -12 -14q-39 6 -63 -19q-2 -20 -2 -43q0 -63 22 -143l39 -141q16 -27 82 -168q8 -8 8 -19q0 -20 -45 -47q-45 18 -90 123q-16 41 -63 148q-14 68 -31 98 q-4 55 -23 162q-88 -16 -258 -74q-31 -2 -98 -18q-27 -6 -35 -37q-82 -88 -137 -256q23 25 80 73l-47 -127q-14 -2 -21 -24q-14 -57 -92 -57q-16 0 -29 4q2 6 2 10q0 10 -6 14zM422 530q70 23 209 52q27 2 59 24q-8 59 -4 168q4 100 2 144q-94 -126 -266 -388zM672 1311 l37 49q70 90 165 102q2 -6 8.5 -16t2.5 -23q-4 -12 -19 -14h-2q-12 -2 -14 -10q-61 -37 -80 -53q-43 -39 -65 -82q-16 -6 -25.5 12.5t-7.5 34.5z" />
<glyph unicode="&#xc2;" horiz-adv-x="954" d="M55 10q2 109 84 238q53 86 94 168l-47 16q-25 14 -22 41q-2 20 47 55q12 4 25 4q10 0 33.5 -10t35.5 -6q29 45 90 133q37 39 80 103l72 106q10 25 40.5 69t41.5 68q10 6 18 29t12 29q-4 6 7 39q2 4 4 20q18 4 24 25q10 35 37 37q41 4 72 -15q4 -33 4 -82q0 -47 -4 -112 q4 -27 4 -54q0 -68 -25 -125q0 -29 -6 -84q4 -25 15 -73q16 0 48.5 6t49.5 6q41 0 65 -27q-27 -37 -53 -49h-27q-6 -2 -12 -14q-39 6 -63 -19q-2 -20 -2 -43q0 -63 22 -143l39 -141q16 -27 82 -168q8 -8 8 -19q0 -20 -45 -47q-45 18 -90 123q-16 41 -63 148q-14 68 -31 98 q-4 55 -23 162q-88 -16 -258 -74q-31 -2 -98 -18q-27 -6 -35 -37q-82 -88 -137 -256q23 25 80 73l-47 -127q-14 -2 -21 -24q-14 -57 -92 -57q-16 0 -29 4q2 6 2 10q0 10 -6 14zM422 530q70 23 209 52q27 2 59 24q-8 59 -4 168q4 100 2 144q-94 -126 -266 -388zM623 1337 q0 10 8 23q33 57 59 92q12 6 24.5 22.5t24.5 22.5q25 12 62 0q14 -18 24 -57q12 -47 21 -62v-6q0 -8 6 -10l-2 -12q10 -70 14 -105q0 -6 2 -24q-10 -10 -20 -11q-25 0 -28 31t-9 76q-8 94 -35 153q-45 -35 -69 -98q-2 -8 -15 -22q0 -8 -9 -20.5t-11 -16.5t-13 -13 q0 -2 -6 -4l6 4q-10 6 -22 14.5t-12 22.5z" />
<glyph unicode="&#xc3;" horiz-adv-x="1056" d="M55 10q2 109 84 238q53 86 94 168l-47 16q-25 14 -22 41q-2 20 47 55q12 4 25 4q10 0 33.5 -10t35.5 -6q29 45 90 133q37 39 80 103l72 106q10 25 40.5 69t41.5 68q10 6 18 29t12 29q-4 6 7 39q2 4 4 20q18 4 24 25q10 35 37 37q41 4 72 -15q4 -33 4 -82q0 -47 -4 -112 q4 -27 4 -54q0 -68 -25 -125q0 -29 -6 -84q4 -25 15 -73q16 0 48.5 6t49.5 6q41 0 65 -27q-27 -37 -53 -49h-27q-6 -2 -12 -14q-39 6 -63 -19q-2 -20 -2 -43q0 -63 22 -143l39 -141q16 -27 82 -168q8 -8 8 -19q0 -20 -45 -47q-45 18 -90 123q-16 41 -63 148q-14 68 -31 98 q-4 55 -23 162q-88 -16 -258 -74q-31 -2 -98 -18q-27 -6 -35 -37q-82 -88 -137 -256q23 25 80 73l-47 -127q-14 -2 -21 -24q-14 -57 -92 -57q-16 0 -29 4q2 6 2 10q0 10 -6 14zM422 530q70 23 209 52q27 2 59 24q-8 59 -4 168q4 100 2 144q-94 -126 -266 -388zM522 1294 q0 98 86 211q4 0 13.5 5.5t9.5 13.5q51 39 94 35q55 -16 96 -105q14 -14 25.5 -56t30.5 -52v-17q0 -4 -5 -6l5 -8q2 -16 10 -12l4 -23l4 4v-8q18 8 23 8q49 35 102 135q31 55 51 56q20 0 29 -64l-49 -86q-25 -20 -62 -67.5t-67 -63.5q-53 4 -84 55q-12 20 -43 101 q-10 27 -33 77t-57 54q-51 -18 -87 -88q-10 -20 -40 -121q-6 -23 -31 -29t-25 51z" />
<glyph unicode="&#xc4;" horiz-adv-x="917" d="M55 10q2 109 84 238q53 86 94 168l-47 16q-25 14 -22 41q-2 20 47 55q12 4 25 4q10 0 33.5 -10t35.5 -6q29 45 90 133q37 39 80 103l72 106q10 25 40.5 69t41.5 68q10 6 18 29t12 29q-4 6 7 39q2 4 4 20q18 4 24 25q10 35 37 37q41 4 72 -15q4 -33 4 -82q0 -47 -4 -112 q4 -27 4 -54q0 -68 -25 -125q0 -29 -6 -84q4 -25 15 -73q16 0 48.5 6t49.5 6q41 0 65 -27q-27 -37 -53 -49h-27q-6 -2 -12 -14q-39 6 -63 -19q-2 -20 -2 -43q0 -63 22 -143l39 -141q16 -27 82 -168q8 -8 8 -19q0 -20 -45 -47q-45 18 -90 123q-16 41 -63 148q-14 68 -31 98 q-4 55 -23 162q-88 -16 -258 -74q-31 -2 -98 -18q-27 -6 -35 -37q-82 -88 -137 -256q23 25 80 73l-47 -127q-14 -2 -21 -24q-14 -57 -92 -57q-16 0 -29 4q2 6 2 10q0 10 -6 14zM422 530q70 23 209 52q27 2 59 24q-8 59 -4 168q4 100 2 144q-94 -126 -266 -388zM551 1335 q0 57 47 58q16 -4 31.5 -9.5t19.5 -23.5v-29q-6 -59 -63 -65q-31 18 -31 30q-4 23 -4 39zM831 1331q0 43 37 43q12 -2 24.5 -6t14.5 -18v-23q-4 -45 -49 -49q-23 14 -22 22q-5 19 -5 31z" />
<glyph unicode="&#xc5;" horiz-adv-x="1011" d="M20 -14q0 29 21 61l35 55l145 183q84 119 96 204q39 8 45 9q23 8 31 26.5t68 126.5q43 78 57 129q12 41 53 103q20 49 70 145q-53 86 -53 182q0 68 28 133q10 23 89 95q27 -4 66.5 22.5t62.5 26.5q18 20 45 20q6 0 49 -6q127 -55 121 -188q-8 -152 -70 -221 q-33 -55 -102 -107q-31 -2 -97 -29q0 -12 31 -292q0 -57 18 -82q43 6 142 75q4 2 47 31q4 -14 4 -26q0 -33 -29 -58l-53 -47q-78 -41 -96 -72q47 -188 125 -317q10 -10 57 -98q-10 -18 -37 -41q-33 12 -53 45l-31 63q-45 59 -84 156l-63 166q-8 -8 -39 -12.5t-41 -20.5 q-25 -14 -90 -23q-82 -31 -133 -30q-10 0 -31 2q-45 4 -74 -47q-41 -76 -55 -86q-16 -35 -23 -45q-14 -25 -32 -39q-39 -49 -113 -154q-61 -49 -80 -49q-27 0 -27 31zM438 475q20 -4 45 -4q41 0 88 10q8 4 88 29q53 16 82 45q-2 4 -20 131q-10 68 -37 119q-20 -18 -49 -66 q-23 -16 -51.5 -62t-51.5 -63q-2 -6 -94 -139zM680 1194q0 -47 14 -84q6 -2 8 -8l7 -8q16 -23 32 -23q14 0 31 23q20 6 37.5 -14.5t28.5 -20.5q10 0 22 6q20 20 66 76q55 70 55 168q0 47 -16 77q-43 61 -95 62q-14 0 -28 -4q-2 -4 -45 -25q-27 -12 -27 -43q-12 -6 -14 -8 l-8 -2q-4 0 -9 -6q-59 -66 -59 -166z" />
<glyph unicode="&#xc6;" horiz-adv-x="1529" d="M33 84q0 23 14 59q37 66 127 187t129 186q-4 14 -4 29q0 25 14 43q86 18 111 76q29 37 235 370q4 12 15 92q6 55 51 84q82 -6 235.5 -46t229.5 -48q162 -16 268 -41q4 -2 31 -35q-2 -35 -43 -61q-23 16 -131 29q-141 12 -150 14q-92 18 -161 18q-18 18 -54 19 q-66 0 -108 16q-23 8 -35 8t-23 -4q-20 -41 -26 -186q10 -14 6 -41q-2 -12 -8 -43q0 -10 10 -21q-8 -49 -8 -90q0 -57 16 -96q193 25 580 80q23 -35 24 -39q0 -8 -8 -18q-51 -49 -231 -64q-139 -10 -371 -65q-6 -14 -6 -27q0 -10 5 -30.5t5 -30.5q0 -14 -4 -29q0 -16 6 -57 t4 -64q10 -18 19 -113q6 -68 49 -67q12 0 28 4q217 51 373 51q123 0 217 -29q25 -8 25 -34q0 -27 -27 -33q-225 -8 -272 -12q-150 -12 -268 -45q-31 0 -72 -27q-2 -6 14 -21l-30 -24q-6 -10 -7 -21q-23 -10 -34 -10q-25 0 -29 43q-2 25 -16 25q-8 0 -25 -8q-23 12 -23 34 q0 8 5.5 25.5t5.5 26.5q18 8 16 18l-2 27q-4 51 -41 161q2 98 -16 252l-271 -10q-33 -18 -67 -72q-37 -59 -58 -73q-16 -51 -75 -142q-41 -80 -45 -84q-31 -43 -76 -57q-43 2 -43 41zM483 584q20 2 57.5 -3.5t51.5 -5.5q12 -2 33.5 6.5t31.5 8.5q8 160 -16 241 q-8 -16 -39 -47q0 -16 -17.5 -37.5t-17.5 -33.5q-35 -41 -84 -129z" />
<glyph unicode="&#xc7;" horiz-adv-x="929" d="M76 236q0 57 26 145l41 135l115 209q68 123 143 195q178 242 336 317q29 4 54 4q57 0 88 -27v-36q-2 -18 -19 -33q-6 -2 -65 -4q-43 -2 -62 -25l-83 -53q-54 -35 -75 -74q-297 -297 -395 -719q-4 -115 51 -184q57 -76 168 -76q31 0 91.5 9.5t84.5 11.5q59 16 173 67 q12 2 44.5 21.5t53.5 15.5q8 10 24 10h41l-2 -22q-41 6 -47 -2q-12 -18 -24 -21l-80 -59q-53 -33 -90 -35q-47 -33 -109 -45q63 -45 92 -113q4 -18 4 -36q0 -76 -82 -164q-219 -156 -389 -156q-43 0 -82 8q-25 35 -24 70q0 51 31 59q29 6 30 -26q2 -12 17 -19h69 q41 -2 66 15q37 4 108 41q47 8 93 47l71 77q29 57 4 89q-41 53 -174 90l-18 -2q-106 12 -185 69q-84 63 -104 162q-10 29 -10 64z" />
<glyph unicode="&#xc8;" horiz-adv-x="995" d="M104 119q-20 158 15 246q20 51 45 141q-41 18 -39 69q12 12 41 21.5t37 15.5q2 31 32.5 86.5t32.5 85.5q16 6 20.5 25.5t10.5 26.5q31 53 98 153q-4 4 -63 17l-23 34q-2 8 -2 15q0 47 109 45q72 -2 88 2q190 39 348 39q104 0 199 -17l12 -28q-59 -18 -303 -43 q-100 -10 -174 -39q-45 0 -56 -13q-10 -39 -51 -75q-25 -23 -57 -66q-20 -49 -64 -123l-41 -102q12 -4 23 -4q10 0 44 12t50 14q45 6 66 21q29 8 340 125l84 -8q-68 -68 -99 -68q-39 -37 -116 -68q-109 -43 -125 -53q-43 -10 -131 -53q-55 0 -176 -47q-80 -168 -80 -307 q0 -29 4 -54q27 -98 92 -104q102 -8 215 74l209 157q2 -41 -27 -79q-8 -10 -59 -62q-160 -190 -344 -178q-158 57 -185 166zM510 1421q0 16 16 33q100 -88 217 -143q16 -20 17 -35q0 -18 -18.5 -30.5t-36.5 -6.5q-25 4 -31 4q-8 16 -64 70q-20 12 -53 43q-16 2 -18 18l-4 4 l4 -2l-19 19q-4 6 -4 10q-6 8 -6 16z" />
<glyph unicode="&#xc9;" horiz-adv-x="995" d="M104 119q-20 158 15 246q20 51 45 141q-41 18 -39 69q12 12 41 21.5t37 15.5q2 31 32.5 86.5t32.5 85.5q16 6 20.5 25.5t10.5 26.5q31 53 98 153q-4 4 -63 17l-23 34q-2 8 -2 15q0 47 109 45q72 -2 88 2q190 39 348 39q104 0 199 -17l12 -28q-59 -18 -303 -43 q-100 -10 -174 -39q-45 0 -56 -13q-10 -39 -51 -75q-25 -23 -57 -66q-20 -49 -64 -123l-41 -102q12 -4 23 -4q10 0 44 12t50 14q45 6 66 21q29 8 340 125l84 -8q-68 -68 -99 -68q-39 -37 -116 -68q-109 -43 -125 -53q-43 -10 -131 -53q-55 0 -176 -47q-80 -168 -80 -307 q0 -29 4 -54q27 -98 92 -104q102 -8 215 74l209 157q2 -41 -27 -79q-8 -10 -59 -62q-160 -190 -344 -178q-158 57 -185 166zM508 1270q10 6 13 12t34 35q90 82 215 92q4 -4 13.5 -14.5t0.5 -22.5q-8 -10 -22 -10l-4 -2q-14 0 -19 -8q-80 -35 -102 -49q-55 -35 -86 -74 q-18 -4 -32.5 9.5t-10.5 31.5z" />
<glyph unicode="&#xca;" horiz-adv-x="995" d="M104 119q-20 158 15 246q20 51 45 141q-41 18 -39 69q12 12 41 21.5t37 15.5q2 31 32.5 86.5t32.5 85.5q16 6 20.5 25.5t10.5 26.5q31 53 98 153q-4 4 -63 17l-23 34q-2 8 -2 15q0 47 109 45q72 -2 88 2q190 39 348 39q104 0 199 -17l12 -28q-59 -18 -303 -43 q-100 -10 -174 -39q-45 0 -56 -13q-10 -39 -51 -75q-25 -23 -57 -66q-20 -49 -64 -123l-41 -102q12 -4 23 -4q10 0 44 12t50 14q45 6 66 21q29 8 340 125l84 -8q-68 -68 -99 -68q-39 -37 -116 -68q-109 -43 -125 -53q-43 -10 -131 -53q-55 0 -176 -47q-80 -168 -80 -307 q0 -29 4 -54q27 -98 92 -104q102 -8 215 74l209 157q2 -41 -27 -79q-8 -10 -59 -62q-160 -190 -344 -178q-158 57 -185 166zM623 1337q0 10 8 23q33 57 59 92q12 6 24.5 22.5t24.5 22.5q25 12 62 0q14 -18 24 -57q12 -47 21 -62v-6q0 -8 6 -10l-2 -12q10 -70 14 -105 q0 -6 2 -24q-10 -10 -20 -11q-25 0 -28 31t-9 76q-8 94 -35 153q-45 -35 -69 -98q-2 -8 -15 -22q0 -8 -9 -20.5t-11 -16.5t-13 -13q0 -2 -6 -4l6 4q-10 6 -22 14.5t-12 22.5z" />
<glyph unicode="&#xcb;" horiz-adv-x="995" d="M104 119q-20 158 15 246q20 51 45 141q-41 18 -39 69q12 12 41 21.5t37 15.5q2 31 32.5 86.5t32.5 85.5q16 6 20.5 25.5t10.5 26.5q31 53 98 153q-4 4 -63 17l-23 34q-2 8 -2 15q0 47 109 45q72 -2 88 2q190 39 348 39q104 0 199 -17l12 -28q-59 -18 -303 -43 q-100 -10 -174 -39q-45 0 -56 -13q-10 -39 -51 -75q-25 -23 -57 -66q-20 -49 -64 -123l-41 -102q12 -4 23 -4q10 0 44 12t50 14q45 6 66 21q29 8 340 125l84 -8q-68 -68 -99 -68q-39 -37 -116 -68q-109 -43 -125 -53q-43 -10 -131 -53q-55 0 -176 -47q-80 -168 -80 -307 q0 -29 4 -54q27 -98 92 -104q102 -8 215 74l209 157q2 -41 -27 -79q-8 -10 -59 -62q-160 -190 -344 -178q-158 57 -185 166zM551 1335q0 57 47 58q16 -4 31.5 -9.5t19.5 -23.5v-29q-6 -59 -63 -65q-31 18 -31 30q-4 23 -4 39zM831 1331q0 43 37 43q12 -2 24.5 -6t14.5 -18 v-23q-4 -45 -49 -49q-23 14 -22 22q-5 19 -5 31z" />
<glyph unicode="&#xcc;" horiz-adv-x="442" d="M117 76q4 63 24 225q47 301 154 614q10 29 40 77t40 71q20 23 71 22q27 -20 27 -51q0 -20 -12 -47q-20 -12 -33 -35q-6 -14 -18 -47q-10 -14 -21.5 -55t-32.5 -59l-84 -302q-45 -168 -47 -309q-25 -41 -24 -96q0 -43 14 -84q16 -12 10 -53q-49 -2 -75 41q-8 14 -33 88z M305 1421q0 16 17 33q100 -88 217 -143q16 -20 16 -35q0 -18 -18.5 -30.5t-36.5 -6.5q-25 4 -31 4q-8 16 -63 70q-20 12 -54 43q-16 2 -18 18l-4 4l4 -2l-19 19q-4 6 -4 10q-6 8 -6 16z" />
<glyph unicode="&#xcd;" horiz-adv-x="442" d="M117 76q4 63 24 225q47 301 154 614q10 29 40 77t40 71q20 23 71 22q27 -20 27 -51q0 -20 -12 -47q-20 -12 -33 -35q-6 -14 -18 -47q-10 -14 -21.5 -55t-32.5 -59l-84 -302q-45 -168 -47 -309q-25 -41 -24 -96q0 -43 14 -84q16 -12 10 -53q-49 -2 -75 41q-8 14 -33 88z M426 1270q10 6 13 12t34 35q90 82 215 92q4 -4 13.5 -14.5t0.5 -22.5q-8 -10 -22 -10l-4 -2q-14 0 -19 -8q-80 -35 -102 -49q-55 -35 -86 -74q-18 -4 -32.5 9.5t-10.5 31.5z" />
<glyph unicode="&#xce;" horiz-adv-x="442" d="M117 76q4 63 24 225q47 301 154 614q10 29 40 77t40 71q20 23 71 22q27 -20 27 -51q0 -20 -12 -47q-20 -12 -33 -35q-6 -14 -18 -47q-10 -14 -21.5 -55t-32.5 -59l-84 -302q-45 -168 -47 -309q-25 -41 -24 -96q0 -43 14 -84q16 -12 10 -53q-49 -2 -75 41q-8 14 -33 88z M377 1337q0 10 8 23q33 57 59 92q12 6 24.5 22.5t25.5 22.5q25 12 61 0q14 -18 25 -57q12 -47 20 -62v-6q0 -8 6 -10l-2 -12q10 -70 14 -105q0 -6 3 -24q-10 -10 -21 -11q-25 0 -28 31t-9 76q-8 94 -35 153q-45 -35 -69 -98q-2 -8 -15 -22q0 -8 -9 -20.5t-11 -16.5t-12 -13 q0 -2 -6 -4l6 4q-10 6 -22.5 14.5t-12.5 22.5z" />
<glyph unicode="&#xcf;" horiz-adv-x="442" d="M117 76q4 63 24 225q47 301 154 614q10 29 40 77t40 71q20 23 71 22q27 -20 27 -51q0 -20 -12 -47q-20 -12 -33 -35q-6 -14 -18 -47q-10 -14 -21.5 -55t-32.5 -59l-84 -302q-45 -168 -47 -309q-25 -41 -24 -96q0 -43 14 -84q16 -12 10 -53q-49 -2 -75 41q-8 14 -33 88z M346 1335q0 57 47 58q16 -4 31.5 -9.5t19.5 -23.5v-29q-6 -59 -63 -65q-31 18 -31 30q-4 23 -4 39zM627 1331q0 43 37 43q12 -2 24 -6t14 -18v-23q-4 -45 -49 -49q-23 14 -22 22q-4 19 -4 31z" />
<glyph unicode="&#xd1;" d="M-4 -90q0 8 8 41q6 27 2 39q68 195 180 569q117 389 179 569q18 12 38 13q53 0 37 -2q18 -25 45 -41q-8 -125 23 -203q-4 -31 -4 -66q0 -45 8 -122q10 -90 12 -121q51 -289 144 -443q-4 14 18 41q6 39 38 113t38 113l133 381q80 209 178 360q37 20 45 20q33 0 33 -30 l-21 -45q-4 -6 -2 -25q-23 -6 -36 -47q-8 -25 -25 -35q-4 -16 -41 -108q-27 -68 -29 -111q-12 -43 -55 -121q-8 -47 -14 -57q-8 -31 -27 -53q-33 -117 -119 -363q-20 -88 -86 -190q-25 8 -71 26q-121 162 -187 500q-18 49 -24 195q-10 37 -15.5 109.5t-13.5 107.5h-2 l-100 -336q-16 -41 -41 -154q-23 -98 -52 -149q4 -10 5 -23q0 -27 -27 -84t-29 -83.5t-21.5 -89t-17.5 -97.5q-18 -39 -51 -39q-53 0 -53 41zM522 1294q0 98 86 211q4 0 13.5 5.5t9.5 13.5q51 39 94 35q55 -16 96 -105q14 -14 25.5 -56t30.5 -52v-17q0 -4 -5 -6l5 -8 q2 -16 10 -12l4 -23l4 4v-8q18 8 23 8q49 35 102 135q31 55 51 56q20 0 29 -64l-49 -86q-25 -20 -62 -67.5t-67 -63.5q-53 4 -84 55q-12 20 -43 101q-10 27 -33 77t-57 54q-51 -18 -87 -88q-10 -20 -40 -121q-6 -23 -31 -29t-25 51z" />
<glyph unicode="&#xd2;" horiz-adv-x="1087" d="M68 248q0 182 184 457q4 8 96 143q115 166 293 268q129 37 178 37q47 0 80 -23h29q131 -143 131 -309q0 -41 -8 -84q-4 -4 -4 -8q0 -6 2 -18.5t2 -18.5q-4 -8 -15 -18q-25 -121 -139 -273q-12 -10 -39 -67q-180 -182 -240 -230q-156 -123 -294 -122q-18 0 -37 2 q-31 8 -82 43q-137 63 -137 221zM178 254q0 -184 154 -184q117 0 258 129q104 78 117 110q88 88 139 168q109 170 108 346q0 61 -14 115q6 16 -13.5 33.5t-19.5 29.5l-37 33q-18 16 -39 17q-8 0 -16 -2l4 -9l-24 -24q-6 25 -19 26q-45 0 -106 -45q-45 -35 -80 -43 q-361 -368 -412 -700zM715 1421q0 16 16 33q100 -88 217 -143q16 -20 17 -35q0 -18 -18.5 -30.5t-37.5 -6.5q-25 4 -30 4q-8 16 -64 70q-20 12 -53 43q-16 2 -19 18l-4 4l4 -2l-18 19q-4 6 -4 10q-6 8 -6 16z" />
<glyph unicode="&#xd3;" horiz-adv-x="1087" d="M68 248q0 182 184 457q4 8 96 143q115 166 293 268q129 37 178 37q47 0 80 -23h29q131 -143 131 -309q0 -41 -8 -84q-4 -4 -4 -8q0 -6 2 -18.5t2 -18.5q-4 -8 -15 -18q-25 -121 -139 -273q-12 -10 -39 -67q-180 -182 -240 -230q-156 -123 -294 -122q-18 0 -37 2 q-31 8 -82 43q-137 63 -137 221zM178 254q0 -184 154 -184q117 0 258 129q104 78 117 110q88 88 139 168q109 170 108 346q0 61 -14 115q6 16 -13.5 33.5t-19.5 29.5l-37 33q-18 16 -39 17q-8 0 -16 -2l4 -9l-24 -24q-6 25 -19 26q-45 0 -106 -45q-45 -35 -80 -43 q-361 -368 -412 -700zM758 1331q12 12 33 35q66 63 155 72q2 -4 9.5 -11.5t0.5 -17.5q-6 -6 -16 -8h-4q-10 -2 -12 -6q-57 -27 -74 -39q-39 -27 -62 -58q-14 -2 -24 8.5t-6 24.5z" />
<glyph unicode="&#xd4;" horiz-adv-x="1087" d="M68 248q0 182 184 457q4 8 96 143q115 166 293 268q129 37 178 37q47 0 80 -23h29q131 -143 131 -309q0 -41 -8 -84q-4 -4 -4 -8q0 -6 2 -18.5t2 -18.5q-4 -8 -15 -18q-25 -121 -139 -273q-12 -10 -39 -67q-180 -182 -240 -230q-156 -123 -294 -122q-18 0 -37 2 q-31 8 -82 43q-137 63 -137 221zM178 254q0 -184 154 -184q117 0 258 129q104 78 117 110q88 88 139 168q109 170 108 346q0 61 -14 115q6 16 -13.5 33.5t-19.5 29.5l-37 33q-18 16 -39 17q-8 0 -16 -2l4 -9l-24 -24q-6 25 -19 26q-45 0 -106 -45q-45 -35 -80 -43 q-361 -368 -412 -700zM829 1399q0 12 17 26q47 47 82 72q14 4 30.5 16.5t28.5 14.5q29 6 60 -17q8 -23 8 -63q-2 -49 2 -64q0 -4 -2 -6q-2 -8 2 -12l-4 -10q-8 -70 -15 -105q-2 -6 -6 -24q-8 -4 -16 -4q-31 0 -25 37l15 75q16 92 6 158q-51 -20 -92 -76q-4 -8 -17.5 -17 t-32.5 -30q-4 -4 -16 -8q0 -2 -8 -2l8 2l-14 16q-11 9 -11 21z" />
<glyph unicode="&#xd5;" horiz-adv-x="1087" d="M68 248q0 182 184 457q4 8 96 143q115 166 293 268q129 37 178 37q47 0 80 -23h29q131 -143 131 -309q0 -41 -8 -84q-4 -4 -4 -8q0 -6 2 -18.5t2 -18.5q-4 -8 -15 -18q-25 -121 -139 -273q-12 -10 -39 -67q-180 -182 -240 -230q-156 -123 -294 -122q-18 0 -37 2 q-31 8 -82 43q-137 63 -137 221zM178 254q0 -184 154 -184q117 0 258 129q104 78 117 110q88 88 139 168q109 170 108 346q0 61 -14 115q6 16 -13.5 33.5t-19.5 29.5l-37 33q-18 16 -39 17q-8 0 -16 -2l4 -9l-24 -24q-6 25 -19 26q-45 0 -106 -45q-45 -35 -80 -43 q-361 -368 -412 -700zM522 1294q0 98 86 211q4 0 13.5 5.5t9.5 13.5q51 39 94 35q55 -16 96 -105q14 -14 25.5 -56t30.5 -52v-17q0 -4 -5 -6l5 -8q2 -16 10 -12l4 -23l4 4v-8q18 8 23 8q49 35 102 135q31 55 51 56q20 0 29 -64l-49 -86q-25 -20 -62 -67.5t-67 -63.5 q-53 4 -84 55q-12 20 -43 101q-10 27 -33 77t-57 54q-51 -18 -87 -88q-10 -20 -40 -121q-6 -23 -31 -29t-25 51z" />
<glyph unicode="&#xd6;" horiz-adv-x="1087" d="M68 248q0 182 184 457q4 8 96 143q115 166 293 268q129 37 178 37q47 0 80 -23h29q131 -143 131 -309q0 -41 -8 -84q-4 -4 -4 -8q0 -6 2 -18.5t2 -18.5q-4 -8 -15 -18q-25 -121 -139 -273q-12 -10 -39 -67q-180 -182 -240 -230q-156 -123 -294 -122q-18 0 -37 2 q-31 8 -82 43q-137 63 -137 221zM178 254q0 -184 154 -184q117 0 258 129q104 78 117 110q88 88 139 168q109 170 108 346q0 61 -14 115q6 16 -13.5 33.5t-19.5 29.5l-37 33q-18 16 -39 17q-8 0 -16 -2l4 -9l-24 -24q-6 25 -19 26q-45 0 -106 -45q-45 -35 -80 -43 q-361 -368 -412 -700zM653 1335q0 57 47 58q16 -4 32 -9.5t20 -23.5v-29q-6 -59 -64 -65q-31 18 -31 30q-4 23 -4 39zM934 1331q0 43 37 43q12 -2 24.5 -6t14.5 -18v-23q-4 -45 -49 -49q-23 14 -23 22q-4 19 -4 31z" />
<glyph unicode="&#xd8;" horiz-adv-x="1048" d="M80 190q-8 213 102 443q98 205 264 375q4 0 39 32q70 66 160 66q35 0 64 -12q63 -45 63 -74q0 -10 -2 -21q6 -31 -33 -88q-10 -16 -45 -32q-6 -6 -37 -31q6 47 10.5 61.5t10.5 42.5q10 43 -21 45q-51 2 -116 -51q-6 -4 -101 -88q-35 -39 -57 -82q-154 -221 -205 -405 q-16 -8 -16 -17q0 -2 6 -14t4 -25q-4 -27 -4 -49q0 -104 65 -170l154 199l164 217q8 10 160 229q18 12 40.5 48t38.5 49l3 12q29 29 155 172q170 190 252 190q10 0 21 -2q29 -33 28 -53q0 -14 -14 -31q-14 -8 -27 -12l-20 -6q-29 -8 -45 -35h-13q-18 -25 -88 -82 q-59 -49 -75 -92q-23 -10 -31 -25l-8 -10q-12 -16 -43 -35q-29 -31 -72 -100q-109 -121 -205 -250q-47 -63 -127 -160q-23 -41 -90 -135l-92 -125q41 -29 98 -28q59 0 109 30q244 113 381 322q94 102 98 291q-6 12 -7 45t-11 45l8 31q6 -2 47 -13q0 -16 -6 -51 q23 -33 22 -65q0 -16 -4 -31q2 -25 0 -51q-4 -47 -4 -54q-31 -174 -203 -337q-203 -195 -366 -236q-37 -10 -88 -10q-53 0 -121 16q-2 -4 -43 -65q-23 -37 -70 -33q2 37 19 76q27 59 28 69q-37 47 -98 150q4 10 4 14q0 6 -10 16z" />
<glyph unicode="&#xd9;" horiz-adv-x="911" d="M45 53q6 223 98 522q27 86 181 504q10 12 26 66q12 41 43 57q41 4 68 -16q6 -27 16 -80q-31 -25 -57 -88q-29 -70 -49 -92q-10 -47 -64 -174q-45 -104 -51 -179l-14 -8q-90 -332 -90 -454q0 -53 10 -97q4 -10 22 -10q16 -2 33 10q106 80 275 344q35 43 83 134.5t74 128.5 q106 201 215 573q55 39 84 23q27 -14 27 -43q0 -18 -19.5 -63.5t-19.5 -63.5q-10 -43 -127 -406q-78 -242 -98 -412q29 -10 28 -45q0 -14 -32 -106q-2 -6 -39 -37q-18 -6 -27 2l-18 12q-4 0 -23 -4q-4 145 39 365l-100 -162q-18 -16 -49 -64.5t-56 -66.5 q-115 -190 -258 -211q-119 45 -131 141zM510 1524q0 16 16 32q100 -88 217 -143q16 -20 17 -35q0 -18 -18.5 -30.5t-36.5 -6.5l-31 5q-8 16 -64 69q-20 12 -53 43q-16 2 -18 19l-4 4l4 -2l-19 18q-4 6 -4 10q-6 9 -6 17z" />
<glyph unicode="&#xda;" horiz-adv-x="911" d="M45 53q6 223 98 522q27 86 181 504q10 12 26 66q12 41 43 57q41 4 68 -16q6 -27 16 -80q-31 -25 -57 -88q-29 -70 -49 -92q-10 -47 -64 -174q-45 -104 -51 -179l-14 -8q-90 -332 -90 -454q0 -53 10 -97q4 -10 22 -10q16 -2 33 10q106 80 275 344q35 43 83 134.5t74 128.5 q106 201 215 573q55 39 84 23q27 -14 27 -43q0 -18 -19.5 -63.5t-19.5 -63.5q-10 -43 -127 -406q-78 -242 -98 -412q29 -10 28 -45q0 -14 -32 -106q-2 -6 -39 -37q-18 -6 -27 2l-18 12q-4 0 -23 -4q-4 145 39 365l-100 -162q-18 -16 -49 -64.5t-56 -66.5 q-115 -190 -258 -211q-119 45 -131 141zM637 1350q8 4 12 10t33 35q86 82 205 92q4 -6 12 -12q8 -12 0 -25q-8 -10 -20 -10l-5 -2q-14 0 -18 -8q-76 -33 -96 -48q-53 -35 -82 -73q-16 -4 -30.5 9.5t-10.5 31.5z" />
<glyph unicode="&#xdb;" horiz-adv-x="911" d="M45 53q6 223 98 522q27 86 181 504q10 12 26 66q12 41 43 57q41 4 68 -16q6 -27 16 -80q-31 -25 -57 -88q-29 -70 -49 -92q-10 -47 -64 -174q-45 -104 -51 -179l-14 -8q-90 -332 -90 -454q0 -53 10 -97q4 -10 22 -10q16 -2 33 10q106 80 275 344q35 43 83 134.5t74 128.5 q106 201 215 573q55 39 84 23q27 -14 27 -43q0 -18 -19.5 -63.5t-19.5 -63.5q-10 -43 -127 -406q-78 -242 -98 -412q29 -10 28 -45q0 -14 -32 -106q-2 -6 -39 -37q-18 -6 -27 2l-18 12q-4 0 -23 -4q-4 145 39 365l-100 -162q-18 -16 -49 -64.5t-56 -66.5 q-115 -190 -258 -211q-119 45 -131 141zM623 1542q0 10 8 23q33 57 59 92q12 6 24.5 22.5t24.5 22.5q25 12 62 0q14 -18 24 -57q12 -47 21 -62v-6q0 -8 6 -10l-2 -13q10 -70 14 -104q0 -6 2 -25q-10 -10 -20 -10q-25 0 -28 31t-9 76q-8 94 -35 153q-45 -35 -69 -98 q-2 -8 -15 -23q0 -8 -9 -20t-11 -16.5t-13 -12.5q0 -2 -6 -4l6 4q-10 6 -22 14.5t-12 22.5z" />
<glyph unicode="&#xdc;" horiz-adv-x="911" d="M45 53q6 223 98 522q27 86 181 504q10 12 26 66q12 41 43 57q41 4 68 -16q6 -27 16 -80q-31 -25 -57 -88q-29 -70 -49 -92q-10 -47 -64 -174q-45 -104 -51 -179l-14 -8q-90 -332 -90 -454q0 -53 10 -97q4 -10 22 -10q16 -2 33 10q106 80 275 344q35 43 83 134.5t74 128.5 q106 201 215 573q55 39 84 23q27 -14 27 -43q0 -18 -19.5 -63.5t-19.5 -63.5q-10 -43 -127 -406q-78 -242 -98 -412q29 -10 28 -45q0 -14 -32 -106q-2 -6 -39 -37q-18 -6 -27 2l-18 12q-4 0 -23 -4q-4 145 39 365l-100 -162q-18 -16 -49 -64.5t-56 -66.5 q-115 -190 -258 -211q-119 45 -131 141zM489 1376q0 57 48 58q16 -4 31.5 -9.5t19.5 -23.5v-29q-6 -59 -64 -65q-31 18 -30 30q-5 23 -5 39zM770 1372q0 43 37 43q12 -2 24.5 -6t14.5 -18v-23q-4 -45 -49 -49q-23 14 -23 22q-4 19 -4 31z" />
<glyph unicode="&#xdd;" horiz-adv-x="815" d="M-39 -84q8 39 45 59q29 16 31 37q74 57 139 131l123 146q25 27 59 88q18 18 43 57q-31 49 -26 72q-20 25 -62 141l23 8q-35 98 -53 246l-27 252q6 20 35 57q8 2 16 2q27 0 43 -30l4 -6q2 -4 6 -11q-2 -39 9 -241q12 -262 90 -400q92 106 196 322q16 35 90 162 q18 45 46 137q33 16 49 16q33 0 32 -47q0 -16 -36 -92q-12 -23 -13 -45q-18 -8 -18 -23q-4 -20 -14 -30h-3q-20 -45 -141 -269l-88 -127q-2 -6 -47 -65q-25 -33 0 -57l-6 -25q-31 -16 -86 -59q-57 -59 -166 -191q-31 -20 -121 -117q-70 -74 -143 -92v-6h-29zM426 1270 q10 6 13 12t34 35q90 82 215 92q4 -4 13.5 -14.5t0.5 -22.5q-8 -10 -22 -10l-4 -2q-14 0 -19 -8q-80 -35 -102 -49q-55 -35 -86 -74q-18 -4 -32.5 9.5t-10.5 31.5z" />
<glyph unicode="&#xdf;" horiz-adv-x="634" d="M-119 -96q0 16 2 28l2 13q2 14 19 78q23 80 55 208l43 152l74 264q10 41 14 62q23 102 33 122q0 6 2 9v6l4 8q4 10 -6 23q37 45 47 161q8 80 84 111q23 8 45 10q20 2 39 0q18 -2 27 -8h67q115 0 199 -53q47 -55 49 -101q-14 -23 -70 -92q-2 -14 -30 -33 q-27 -29 -207 -167q-12 -4 -39 -31l-21 -21q-10 -10 -13 -11t-7 -5q213 -23 307 -127q33 -47 33 -104q0 -37 -15 -68q-12 -6 -22 -27.5t-23 -27.5l-12 -31q-43 -39 -125 -121q-84 -57 -209 -102q-76 -27 -118 -27q-14 0 -20.5 7t-2.5 22q4 23 33 55q66 12 69 12 q74 37 213 121q117 88 142 193q-55 123 -181 110q-23 16 -63 17q-33 0 -49 15l-33 32q-16 16 -16 35q-4 31 18 57q176 113 332 283q25 18 31 57q-51 43 -162 49h-4h-13h17q4 0 8 2q-12 -4 -41 4q-16 4 -33 6q-96 12 -114 -147q-2 -18 -2 -25q-14 -55 -45 -164 q2 -10 -6.5 -25.5t-8.5 -19.5l-20 -98l-19.5 -98t-42.5 -150q-2 -29 -28 -119q-4 -14 -17 -51q-16 -63 -41.5 -149t-25.5 -101q0 -16 4 -32l-17 -47q-14 0 -28.5 -6.5t-20.5 -8.5q-6 0 -20 6q-21 17 -21 60z" />
<glyph unicode="&#xe0;" horiz-adv-x="466" d="M-63 88q0 74 51 215q94 258 278 389h33q51 0 51 -59q0 -18 -14 -78q-10 -29 -47 -74q-6 -16 -51 -30q10 57 34 86q2 8 11 34q4 6 4 13q0 8 -4 16q10 10 10 16q-12 2 -45 -36q-6 -4 -21 -21q-221 -258 -225 -467q8 -61 37 -69q61 16 127 114q90 82 129 195q6 18 67 276 q8 20 48 33q20 -20 20 -47q0 -14 -8 -41q-10 -33 -12 -43q-86 -240 -86 -320q0 -102 41 -139q35 10 57 6q2 -8 2 -16q0 -23 -21 -37q-12 -4 -36 -18q-29 -2 -91 34q-2 18 -17 60.5t-15 64.5q-16 -20 -23 -34q-80 -100 -94 -113q-61 -55 -133 -45q-57 47 -57 135zM195 940v4 l2 2q6 10 18 10q10 -10 24.5 -32.5t21.5 -32.5t28 -53q6 -12 10 -43l-20 -9q-4 18 -12.5 29.5t-10.5 13.5q-6 14 -25 37l-28 47q-12 17 -8 27z" />
<glyph unicode="&#xe1;" horiz-adv-x="466" d="M-63 88q0 74 51 215q94 258 278 389h33q51 0 51 -59q0 -18 -14 -78q-10 -29 -47 -74q-6 -16 -51 -30q10 57 34 86q2 8 11 34q4 6 4 13q0 8 -4 16q10 10 10 16q-12 2 -45 -36q-6 -4 -21 -21q-221 -258 -225 -467q8 -61 37 -69q61 16 127 114q90 82 129 195q6 18 67 276 q8 20 48 33q20 -20 20 -47q0 -14 -8 -41q-10 -33 -12 -43q-86 -240 -86 -320q0 -102 41 -139q35 10 57 6q2 -8 2 -16q0 -23 -21 -37q-12 -4 -36 -18q-29 -2 -91 34q-2 18 -17 60.5t-15 64.5q-16 -20 -23 -34q-80 -100 -94 -113q-61 -55 -133 -45q-57 47 -57 135zM276 786 q4 18 13 48q25 88 98 139q4 -2 15.5 -6t5.5 -19q-2 -6 -9 -10l-2 -2q-8 -6 -8 -12q-37 -51 -45 -70q-20 -43 -25 -80q-6 -6 -18 -6q-19 0 -25 18z" />
<glyph unicode="&#xe2;" horiz-adv-x="466" d="M-63 88q0 74 51 215q94 258 278 389h33q51 0 51 -59q0 -18 -14 -78q-10 -29 -47 -74q-6 -16 -51 -30q10 57 34 86q2 8 11 34q4 6 4 13q0 8 -4 16q10 10 10 16q-12 2 -45 -36q-6 -4 -21 -21q-221 -258 -225 -467q8 -61 37 -69q61 16 127 114q90 82 129 195q6 18 67 276 q8 20 48 33q20 -20 20 -47q0 -14 -8 -41q-10 -33 -12 -43q-86 -240 -86 -320q0 -102 41 -139q35 10 57 6q2 -8 2 -16q0 -23 -21 -37q-12 -4 -36 -18q-29 -2 -91 34q-2 18 -17 60.5t-15 64.5q-16 -20 -23 -34q-80 -100 -94 -113q-61 -55 -133 -45q-57 47 -57 135zM223 817 q0 12 15 41l38 68q10 14 33 35q10 4 27 -3q8 -33 31 -86v-6q0 -4 4 -6l-2 -10q6 -49 10 -78v-16q-18 -25 -22.5 3.5t-6.5 57.5q-4 72 -28 119q-35 -25 -54 -74q0 -8 -12 -20v-4q-4 -10 -14 -21q-2 -4 -11 -10q6 -4 -4 -4l4 4q-8 6 -8 10z" />
<glyph unicode="&#xe3;" horiz-adv-x="522" d="M18 88q0 74 52 215q94 258 278 389h33q51 0 51 -59q0 -18 -14 -78q-10 -29 -47 -74q-6 -16 -52 -30q10 57 35 86q2 8 11 34q4 6 4 13q0 8 -4 16q10 10 10 16q-12 2 -45 -36q-6 -4 -21 -21q-221 -258 -225 -467q8 -61 37 -69q61 16 127 114q90 82 129 195q6 18 67 276 q8 20 48 33q20 -20 20 -47q0 -14 -8 -41q-10 -33 -12 -43q-86 -240 -86 -320q0 -102 40 -139q35 10 58 6q2 -8 2 -16q0 -23 -21 -37q-12 -4 -36 -18q-29 -2 -91 34q-2 18 -17 60.5t-15 64.5q-16 -20 -23 -34q-80 -100 -94 -113q-61 -55 -133 -45q-58 47 -58 135zM174 817 q0 51 45 111q2 0 7 3t5 7q27 20 50 18q31 -10 51 -55q6 -25 28 -57v-8q0 -2 -2 -5l2 -4q2 -8 7 -6l2 -12l2 2v-4q10 4 12 4q25 18 53 72q16 29 27 28q12 0 16 -32l-28 -44q-18 -28 -66 -71q-29 2 -45 29l-29 69q-20 51 -41 53q-27 -10 -45 -47q-8 -14 -22 -63 q-4 -12 -17 -14q-12 -5 -12 26z" />
<glyph unicode="&#xe4;" horiz-adv-x="446" d="M-63 88q0 74 51 215q94 258 278 389h33q51 0 51 -59q0 -18 -14 -78q-10 -29 -47 -74q-6 -16 -51 -30q10 57 34 86q2 8 11 34q4 6 4 13q0 8 -4 16q10 10 10 16q-12 2 -45 -36q-6 -4 -21 -21q-221 -258 -225 -467q8 -61 37 -69q61 16 127 114q90 82 129 195q6 18 67 276 q8 20 48 33q20 -20 20 -47q0 -14 -8 -41q-10 -33 -12 -43q-86 -240 -86 -320q0 -102 41 -139q35 10 57 6q2 -8 2 -16q0 -23 -21 -37q-12 -4 -36 -18q-29 -2 -91 34q-2 18 -17 60.5t-15 64.5q-16 -20 -23 -34q-80 -100 -94 -113q-61 -55 -133 -45q-57 47 -57 135zM160 877 q16 20 92 20q-8 -41 -8 -43q-8 -27 -23 -35q-31 -25 -59 -4q-33 23 -2 62zM369 887q39 -18 47 -19q18 4 35 11q18 2 30 -19q4 -14 -12 -59q-2 -4 2 -27q-23 8 -33 8q-43 0 -53 23q-4 10 0 29l4 6q3 8 -20 47z" />
<glyph unicode="&#xe5;" horiz-adv-x="479" d="M-55 25q0 18 20 120q14 0 17 13q4 25 6 26l56 106l56 105q66 119 150 185q18 14 47 14q59 0 78 -47q-8 -23 6 -64q16 -43 -14 -65q-6 -25 -40 -75t-34 -85q-20 -12 -19 -35v-18l-12 -10v-72q0 -33 8 -55q41 4 84 47l35 36l35 35q8 2 17.5 21.5t31.5 25.5q12 -12 12 -22 q0 8 -14 -35q-76 -82 -80 -86q-47 -47 -92 -72q-53 0 -74 11q-31 16 -32 63q0 10 -5 23q-33 -53 -114 -150q-8 -33 -47 -24q-82 0 -82 84zM23 4q2 -6 12 -2l90 117q45 61 74 129q0 -4 20 57q8 18 -16 25q-4 31 16 37l4 2h2q18 25 54 88q-2 12 20 47q-43 -18 -80 -66 q-20 -29 -63 -84l-74 -125q-47 -84 -51 -129q-26 -67 -8 -96zM190 811q0 16 25 39q8 6 10 12q76 147 221 189q43 6 103 -35q33 -33 33 -88q0 -27 -7 -56q-14 -33 -73 -53q-100 20 -133 109h-11q-29 -20 -106 -105q-23 -25 -49 -47q-13 21 -13 35zM463 948q0 -10 5 -19 t21 -18q10 -4 15 0q4 31 -4 50q-2 8 -29 8h-6q-2 -11 -2 -21z" />
<glyph unicode="&#xe6;" horiz-adv-x="608" d="M27 84q0 20 8 74q8 6 8 12l2 8q6 27 16 33q53 113 142 188q33 59 149 109q49 0 66 -23l-33 -36q-35 -39 -57 -43q-25 -12 -56 -44l-51 -51q-125 -147 -112 -252q10 -12 24 -20q47 0 105 49q25 272 280 487q20 16 51 17q63 0 74 -51q-4 -16 -2 -25q0 -68 -23 -86 q-6 -27 -31.5 -71t-31.5 -66q-68 -86 -231 -234q27 -80 110 -79q45 0 101 -19q-88 -23 -138 -22q-66 0 -98 32q-4 2 -39 43q-12 14 -29 -4q-37 -25 -90 -24q-114 0 -114 98zM338 162q209 180 227 346q-12 -14 -45 -37q-147 -145 -182 -309z" />
<glyph unicode="&#xe7;" horiz-adv-x="466" d="M10 184q0 37 8 80q131 309 326 371q66 -29 72 -88q2 -14 -8.5 -24.5t-24.5 -6.5q-6 2 -16.5 12.5t-24.5 8.5l-59 -37q-33 -20 -50 -45q-27 -23 -71 -93q-37 -37 -53 -90q0 -8 -21 -102q6 -61 43 -78l12 -4q4 -2 15 -4q47 -10 182 27l59 16l2 2q8 4 15 4q12 0 24 -8 q-6 -31 -36.5 -50.5t-59.5 -35.5q-76 -37 -145 -35q0 -27 -33 -57q70 -12 90 -66q2 -8 2 -18q0 -33 -35 -72q-92 -68 -133 -67q-12 0 -26.5 9t-14.5 17t21.5 9t27.5 5q16 4 49 21q18 2 41 22l31 35q4 12 4 23q0 10 -4 16q-8 18 -57 33q-18 4 -56 14v-2q-10 4 -14 11 q10 12 29 12h24l5 4q23 29 28 53q-2 0 -24 4q-51 10 -97 43q-47 45 -47 131z" />
<glyph unicode="&#xe8;" horiz-adv-x="563" d="M14 260q0 49 25 57q27 0 53 -2q35 2 49 17q31 213 160 332q63 59 127 59q47 0 61.5 -24.5t20.5 -28.5q4 -23 4 -45q0 -111 -156 -265q-55 -53 -141 -98q-6 -16 -6 -37q0 -31 27 -104q43 -47 90 -47q12 0 22 4q63 12 215 121h39v-37q-172 -164 -285 -164q-29 0 -59 8 q-111 31 -133 219q-6 2 -57 2q-36 0 -56 33zM229 371q102 61 189 180q35 49 28 92l-6 6q-68 -20 -161 -143q-21 -43 -50 -135zM293 891q0 12 12 24q74 -70 160 -114q27 -35 -8 -56q-10 -6 -21 -2q-18 4 -22 5q-6 12 -47 55q-14 10 -39 35q-12 2 -15 14l-2 4l2 -2l-12 14 q-4 4 -6 9.5t-2 13.5z" />
<glyph unicode="&#xe9;" horiz-adv-x="440" d="M-98 260q0 49 24 57q27 0 54 -2q35 2 49 17q31 213 159 332q63 59 127 59q47 0 61.5 -24.5t20.5 -28.5q4 -23 4 -45q0 -111 -155 -265q-55 -53 -142 -98q-6 -16 -6 -37q0 -31 27 -104q43 -47 90 -47q12 0 23 4q63 12 215 121h39v-37q-172 -164 -285 -164q-29 0 -60 8 q-111 31 -133 219q-6 2 -57 2q-35 0 -55 33zM117 371q102 61 188 180q35 49 29 92l-6 6q-68 -20 -162 -143q-20 -43 -49 -135zM221 801q86 45 160 114q12 -12 12 -24q0 -8 -2 -14.5t-16 -20.5l-2 -4q-4 -12 -15 -14q-35 -25 -86 -90q-4 0 -22 -5q-10 -4 -21 2q-35 21 -8 56z " />
<glyph unicode="&#xea;" horiz-adv-x="512" d="M-39 133q88 350 363 539q8 2 47 6q35 4 54 -17.5t17 -56.5q-6 -29 -10 -55q-43 -123 -256 -275q-12 -8 -70 -16q-33 -4 -32 -37q-29 -45 -29 -108q0 -41 12 -90q33 -55 111 -60l8 4q33 -2 90 19q59 33 189 90q6 -23 -11 -39l-6 -4q-10 -6 -10 -23q-172 -119 -270 -119 q-55 0 -107 29q-90 63 -90 213zM141 354q10 0 23 6l108 95q63 61 86 112q-6 6 -14 13q-113 -64 -203 -226zM229 915q-2 10 13 35q33 57 59 92q14 16 49 45q16 8 41 0q14 -18 25 -57q12 -47 20 -61v-6q0 -8 6 -11l-2 -12l15 -104q0 -6 2 -25q-10 -10 -21 -10 q-25 0 -27.5 30.5t-9.5 75.5q-8 94 -34 154q-45 -35 -70 -98q-2 -8 -14 -23q0 -8 -9.5 -20.5t-11.5 -16.5t-12 -12q0 -2 -6 -4l6 4q-19 16 -19 24z" />
<glyph unicode="&#xeb;" horiz-adv-x="512" d="M-39 133q88 350 363 539q8 2 47 6q35 4 54 -17.5t17 -56.5q-6 -29 -10 -55q-43 -123 -256 -275q-12 -8 -70 -16q-33 -4 -32 -37q-29 -45 -29 -108q0 -41 12 -90q33 -55 111 -60l8 4q33 -2 90 19q59 33 189 90q6 -23 -11 -39l-6 -4q-10 -6 -10 -23q-172 -119 -270 -119 q-55 0 -107 29q-90 63 -90 213zM121 864q0 57 47 58q16 -4 31.5 -9.5t19.5 -23.5v-29q-6 -59 -63 -65q-31 18 -31 30q-4 23 -4 39zM141 354q10 0 23 6l108 95q63 61 86 112q-6 6 -14 13q-113 -64 -203 -226zM319 860q0 43 37 43q12 -2 24.5 -6t14.5 -18v-23q-4 -45 -49 -49 q-23 14 -22 22q-5 19 -5 31z" />
<glyph unicode="&#xec;" horiz-adv-x="311" d="M-33 84q0 168 84 444q10 33 55 136q12 14 33 14q20 0 39 -14.5t19 -32.5q0 -10 -7 -19q-51 -84 -90 -196l-24 -131q-31 -168 -27 -232q4 -12 21 -33q8 -2 24.5 13.5t22.5 17.5q25 16 67.5 63.5t75.5 61.5l47 55q-37 -123 -76 -147q-18 -31 -61 -88q-80 -49 -117 -47 t-82 61q-4 37 -4 74zM6 932q0 12 12 24q74 -70 160 -114q27 -35 -8 -56q-10 -6 -20 -2q-18 4 -23 4q-6 12 -47 56q-14 10 -39 35q-12 2 -14 14l-2 4l2 -2l-13 14q-4 4 -6 9.5t-2 13.5z" />
<glyph unicode="&#xed;" horiz-adv-x="311" d="M-33 84q0 168 84 444q10 33 55 136q12 14 33 14q20 0 39 -14.5t19 -32.5q0 -10 -7 -19q-51 -84 -90 -196l-24 -131q-31 -168 -27 -232q4 -12 21 -33q8 -2 24.5 13.5t22.5 17.5q25 16 67.5 63.5t75.5 61.5l47 55q-37 -123 -76 -147q-18 -31 -61 -88q-80 -49 -117 -47 t-82 61q-4 37 -4 74zM78 842q86 45 160 114q12 -12 12 -24q0 -8 -2 -14.5t-17 -20.5l-2 -4q-4 -12 -14 -14q-35 -25 -86 -91q-4 0 -23 -4q-10 -4 -20 2q-35 21 -8 56z" />
<glyph unicode="&#xee;" horiz-adv-x="311" d="M-33 84q0 168 84 444q10 33 55 136q12 14 33 14q20 0 39 -14.5t19 -32.5q0 -10 -7 -19q-51 -84 -90 -196l-24 -131q-31 -168 -27 -232q4 -12 21 -33q8 -2 24.5 13.5t22.5 17.5q25 16 67.5 63.5t75.5 61.5l47 55q-37 -123 -76 -147q-18 -31 -61 -88q-80 -49 -117 -47 t-82 61q-4 37 -4 74zM8 928q0 10 8 22q33 57 60 92q12 6 24.5 22.5t24.5 22.5q25 12 61 0q14 -18 25 -57q12 -47 20 -61v-6q0 -8 7 -11l-2 -12q10 -70 14 -104q0 -6 2 -25q-10 -10 -21 -10q-25 0 -27.5 30.5t-8.5 75.5q-8 94 -35 154q-45 -35 -70 -98q-2 -8 -14 -23 q0 -8 -9.5 -20.5t-11.5 -16.5t-12 -12q0 -2 -6 -4l6 4q-10 6 -22.5 14.5t-12.5 22.5z" />
<glyph unicode="&#xef;" horiz-adv-x="311" d="M-33 84q0 168 84 444q10 33 55 136q12 14 33 14q20 0 39 -14.5t19 -32.5q0 -10 -7 -19q-51 -84 -90 -196l-24 -131q-31 -168 -27 -232q4 -12 21 -33q8 -2 24.5 13.5t22.5 17.5q25 16 67.5 63.5t75.5 61.5l47 55q-37 -123 -76 -147q-18 -31 -61 -88q-80 -49 -117 -47 t-82 61q-4 37 -4 74zM18 864q0 57 48 58q16 -4 31.5 -9.5t19.5 -23.5v-29q-6 -59 -64 -65q-31 18 -30 30q-5 23 -5 39zM217 860q0 43 37 43q12 -2 24.5 -6t14.5 -18v-23q-4 -45 -49 -49q-23 14 -23 22q-4 19 -4 31z" />
<glyph unicode="&#xf1;" horiz-adv-x="600" d="M18 98l64 234q37 135 49 237q14 18 35 19q20 0 37.5 -22.5t13.5 -43.5l-88 -362q8 23 41 57q104 145 135 182q82 96 170 152q68 0 68 -72q0 -14 -5.5 -45t-5.5 -45q-14 -68 -26 -133q-16 -84 -17 -133q0 -90 48 -158q-20 -6 -37 -6q-29 0 -51 18q-39 68 -39 162 q0 59 18 150l29 143l-2 4q-78 -59 -176 -207q-104 -156 -166 -213q-29 -12 -52 -12q-12 0 -24 4q-35 27 -19 90zM174 817q0 51 45 111q2 0 7 3t5 7q27 20 50 18q31 -10 51 -55q6 -25 28 -57v-8q0 -2 -2 -5l2 -4q2 -8 7 -6l2 -12l2 2v-4q10 4 12 4q25 18 53 72q16 29 27 28 q12 0 16 -32l-28 -44q-18 -28 -66 -71q-29 2 -45 29l-29 69q-20 51 -41 53q-27 -10 -45 -47q-8 -14 -22 -63q-4 -12 -17 -14q-12 -5 -12 26z" />
<glyph unicode="&#xf2;" horiz-adv-x="503" d="M-57 129q10 53 45 125l59 117q16 16 44 53t54 49q29 39 80 45q18 -6 64 31q8 8 28 20q55 0 80 -12q57 -51 58 -149q0 -51 -15 -105q-16 -41 -59 -121q-16 -6 -27 -28q-18 -29 -20 -33q-27 -31 -88 -76q-63 -74 -170 -74q-29 0 -58 9q-67 43 -75 149zM35 74q12 -23 35 -27 q213 39 309 311v60v31q2 8 2 2q-4 43 -33 61l-65 -23l16 -24l-4 -59q-6 -37 -25 -54q-10 -4 -18 -4q-23 0 -27 58v6q-18 -6 -49 -37t-45 -39q-63 -106 -70 -125q-32 -71 -26 -137zM109 850q0 12 12 24q74 -70 160 -114q27 -35 -9 -55q-10 -6 -20 -3q-18 4 -23 5 q-6 12 -47 55q-14 10 -39 35q-12 2 -14 14l-2 4l2 -2l-12 14q-4 4 -6 9.5t-2 13.5z" />
<glyph unicode="&#xf3;" horiz-adv-x="503" d="M-57 129q10 53 45 125l59 117q16 16 44 53t54 49q29 39 80 45q18 -6 64 31q8 8 28 20q55 0 80 -12q57 -51 58 -149q0 -51 -15 -105q-16 -41 -59 -121q-16 -6 -27 -28q-18 -29 -20 -33q-27 -31 -88 -76q-63 -74 -170 -74q-29 0 -58 9q-67 43 -75 149zM35 74q12 -23 35 -27 q213 39 309 311v60v31q2 8 2 2q-4 43 -33 61l-65 -23l16 -24l-4 -59q-6 -37 -25 -54q-10 -4 -18 -4q-23 0 -27 58v6q-18 -6 -49 -37t-45 -39q-63 -106 -70 -125q-32 -71 -26 -137zM201 739q86 45 159 115q12 -12 13 -25q0 -8 -2 -14t-17 -20l-2 -4q-4 -12 -14 -15 q-35 -25 -86 -90q-4 0 -23 -4q-10 -4 -20 2q-35 20 -8 55z" />
<glyph unicode="&#xf4;" horiz-adv-x="503" d="M-57 129q10 53 45 125l59 117q16 16 44 53t54 49q29 39 80 45q18 -6 64 31q8 8 28 20q55 0 80 -12q57 -51 58 -149q0 -51 -15 -105q-16 -41 -59 -121q-16 -6 -27 -28q-18 -29 -20 -33q-27 -31 -88 -76q-63 -74 -170 -74q-29 0 -58 9q-67 43 -75 149zM35 74q12 -23 35 -27 q213 39 309 311v60v31q2 8 2 2q-4 43 -33 61l-65 -23l16 -24l-4 -59q-6 -37 -25 -54q-10 -4 -18 -4q-23 0 -27 58v6q-18 -6 -49 -37t-45 -39q-63 -106 -70 -125q-32 -71 -26 -137zM154 772q0 10 4 23q29 59 53 94q10 8 21.5 26.5t23.5 24.5q23 14 59 4q16 -16 31 -55 q16 -45 25 -60v-4q0 -8 8 -10l-2 -14q18 -68 24 -101q0 -6 2 -24q-8 -12 -20 -12q-23 0 -29 28.5t-14 73.5q-16 92 -49 149q-41 -37 -60 -102q-2 -10 -12 -25q0 -8 -8 -20t-9 -17.5t-12 -13.5l3 -2q-2 -2 -9 -4l6 6q-12 6 -24 13.5t-12 21.5z" />
<glyph unicode="&#xf5;" horiz-adv-x="503" d="M-57 129q10 53 45 125l59 117q16 16 44 53t54 49q29 39 80 45q18 -6 64 31q8 8 28 20q55 0 80 -12q57 -51 58 -149q0 -51 -15 -105q-16 -41 -59 -121q-16 -6 -27 -28q-18 -29 -20 -33q-27 -31 -88 -76q-63 -74 -170 -74q-29 0 -58 9q-67 43 -75 149zM35 74q12 -23 35 -27 q213 39 309 311v60v31q2 8 2 2q-4 43 -33 61l-65 -23l16 -24l-4 -59q-6 -37 -25 -54q-10 -4 -18 -4q-23 0 -27 58v6q-18 -6 -49 -37t-45 -39q-63 -106 -70 -125q-32 -71 -26 -137zM113 756q0 51 45 110q2 0 7 3t5 8q27 20 49 18q31 -10 51 -55q6 -25 29 -58v-8q0 -2 -2 -4 l2 -4q2 -8 6 -6l2 -12l2 2v-5q10 4 13 5q25 18 53 71q16 29 26 29q12 0 17 -33l-29 -44q-18 -28 -65 -71q-29 2 -45 29l-29 70q-20 51 -41 53q-27 -10 -45 -47q-8 -14 -23 -64q-4 -12 -16 -14q-12 -4 -12 27z" />
<glyph unicode="&#xf6;" horiz-adv-x="503" d="M-57 129q10 53 45 125l59 117q16 16 44 53t54 49q29 39 80 45q18 -6 64 31q8 8 28 20q55 0 80 -12q57 -51 58 -149q0 -51 -15 -105q-16 -41 -59 -121q-16 -6 -27 -28q-18 -29 -20 -33q-27 -31 -88 -76q-63 -74 -170 -74q-29 0 -58 9q-67 43 -75 149zM35 74q12 -23 35 -27 q213 39 309 311v60v31q2 8 2 2q-4 43 -33 61l-65 -23l16 -24l-4 -59q-6 -37 -25 -54q-10 -4 -18 -4q-23 0 -27 58v6q-18 -6 -49 -37t-45 -39q-63 -106 -70 -125q-32 -71 -26 -137zM121 782q0 57 47 58q16 -4 31.5 -9.5t19.5 -23.5v-29q-6 -59 -63 -65q-31 18 -31 30 q-4 23 -4 39zM319 778q0 43 37 43q12 -2 24.5 -6t14.5 -18v-23q-4 -45 -49 -49q-23 14 -22 23q-5 18 -5 30z" />
<glyph unicode="&#xf7;" horiz-adv-x="747" d="M25 494q14 39 49 43q55 6 63 8q164 43 484 43q63 0 116 -13l21 -22q0 -16 -15 -35q-100 2 -292 -14q-227 -18 -353 -49q-40 6 -73 39zM319 791q18 31 31 30q23 4 39 4q57 0 57 -47q-4 -16 -9 -31.5t-23 -19.5h-29q-60 7 -66 64zM332 313q14 23 22 23q18 4 31 4 q43 0 43 -37q-2 -12 -6 -24.5t-19 -14.5h-22q-45 4 -49 49z" />
<glyph unicode="&#xf8;" horiz-adv-x="448" d="M-297 -236q59 104 133 187l117 131q-8 43 -8 86q0 215 200 391q8 2 31 10.5t37 8.5q10 0 25 -7q41 -10 118 -51q16 10 40 41t40 41q57 76 88 76q14 0 31 -8l29 -29q14 -14 18 -45q-100 -14 -164 -119q-23 -2 -32 -20l-9 -8q0 -98 -2 -119q-6 -63 -35 -113 q-20 -68 -69 -121l-103 -92q-55 -18 -106 -18q-27 0 -51 4q-12 23 -29 26l-147 -116q-43 -70 -152 -136zM25 162l140 147l140 148v18q-6 10 -16 6l-8 -4q-20 -10 -37 -6q-29 -31 -107 -76q-16 6 -20 19q-106 -115 -92 -252zM45 74q25 -31 76 -25q141 47 203 252q0 6 4 25 q8 37 0 41l-191 -189q-33 -32 -92 -104z" />
<glyph unicode="&#xf9;" horiz-adv-x="638" d="M-23 84q0 39 13 102q12 74 14 103q31 154 115 299q23 4 49 -15q6 -16 6 -28q0 -16 -16 -45q-20 -37 -23 -45q-33 -96 -78 -267q-4 -51 -4 -88q0 -59 10 -84q53 8 84 29q2 2 68 53q14 29 102 142q66 84 76 151q55 133 107 213q35 23 47 -12q6 -18 6 -35q0 -31 -23 -78 q-25 -53 -28 -76q-57 -74 -70 -215q2 -10 6 -55q4 -35 23 -41q29 6 51 21q35 25 43 28q25 25 72 66l24 -17q-12 -59 -47 -88q-27 -23 -63 -59q-53 -31 -90 -31q-55 0 -76 72q-4 6 -8 27q-8 33 -17 32q-2 0 -121 -129q-76 -68 -194 -84q-58 66 -58 154zM211 891q0 12 12 24 q74 -70 160 -114q27 -35 -8 -56q-10 -6 -21 -2q-18 4 -22 5q-6 12 -47 55q-14 10 -39 35q-12 2 -15 14l-2 4l2 -2l-12 14q-4 4 -6 9.5t-2 13.5z" />
<glyph unicode="&#xfa;" horiz-adv-x="638" d="M-23 84q0 39 13 102q12 74 14 103q31 154 115 299q23 4 49 -15q6 -16 6 -28q0 -16 -16 -45q-20 -37 -23 -45q-33 -96 -78 -267q-4 -51 -4 -88q0 -59 10 -84q53 8 84 29q2 2 68 53q14 29 102 142q66 84 76 151q55 133 107 213q35 23 47 -12q6 -18 6 -35q0 -31 -23 -78 q-25 -53 -28 -76q-57 -74 -70 -215q2 -10 6 -55q4 -35 23 -41q29 6 51 21q35 25 43 28q25 25 72 66l24 -17q-12 -59 -47 -88q-27 -23 -63 -59q-53 -31 -90 -31q-55 0 -76 72q-4 6 -8 27q-8 33 -17 32q-2 0 -121 -129q-76 -68 -194 -84q-58 66 -58 154zM262 760 q86 45 160 114q12 -12 12 -24q0 -8 -2 -14.5t-16 -20.5l-2 -4q-4 -12 -15 -14q-35 -25 -86 -90q-4 0 -22 -5q-10 -4 -21 3q-35 20 -8 55z" />
<glyph unicode="&#xfb;" horiz-adv-x="638" d="M-23 84q0 39 13 102q12 74 14 103q31 154 115 299q23 4 49 -15q6 -16 6 -28q0 -16 -16 -45q-20 -37 -23 -45q-33 -96 -78 -267q-4 -51 -4 -88q0 -59 10 -84q53 8 84 29q2 2 68 53q14 29 102 142q66 84 76 151q55 133 107 213q35 23 47 -12q6 -18 6 -35q0 -31 -23 -78 q-25 -53 -28 -76q-57 -74 -70 -215q2 -10 6 -55q4 -35 23 -41q29 6 51 21q35 25 43 28q25 25 72 66l24 -17q-12 -59 -47 -88q-27 -23 -63 -59q-53 -31 -90 -31q-55 0 -76 72q-4 6 -8 27q-8 33 -17 32q-2 0 -121 -129q-76 -68 -194 -84q-58 66 -58 154zM233 866q0 10 9 23 q33 57 59 92q12 6 24.5 22.5t24.5 22.5q25 12 62 0q14 -18 24 -57q12 -47 21 -62v-6q0 -8 6 -10l-2 -12q10 -70 14 -105q0 -6 2 -24q-10 -10 -20 -11q-25 0 -28 31t-9 76q-8 94 -35 153q-45 -35 -70 -98q-2 -8 -14 -22q0 -8 -9 -20.5t-11 -16.5t-13 -13q0 -2 -6 -4l6 4 q-10 6 -22.5 14.5t-12.5 22.5z" />
<glyph unicode="&#xfc;" horiz-adv-x="749" d="M12 117q0 80 58 188l127 262q18 41 51 78q27 -45 26 -86q0 -47 -36 -106q-31 -47 -64 -105q-51 -113 -53 -119q-29 -68 -37 -123l20 -14q47 14 117 66l109 78q147 129 278 372q18 6 51 -33q2 -4 19 -8q-170 -293 -170 -411q0 -20 4 -41q12 -6 25 -6q20 0 71 30 q25 14 41 17q45 25 182 133q20 -6 21 -27q0 -18 -16 -35q-14 -6 -40 -39.5t-44 -42.5q-6 -2 -111 -77q-66 -47 -125 -48q-29 0 -59 11q-35 47 -35 119q0 53 18 106l-2 -2q-37 -51 -106 -107q-106 -84 -117 -94q-39 -8 -98 -43q-16 -6 -29 -6q-14 0 -34.5 17.5t-30.5 21.5 q-11 37 -11 74zM367 864q0 57 47 58q16 -4 31.5 -9.5t19.5 -23.5v-29q-6 -59 -64 -65q-31 18 -30 30q-4 23 -4 39zM440 256q6 0 6 4l-2 -2h-2zM565 860q0 43 37 43q12 -2 24.5 -6t14.5 -18v-23q-4 -45 -49 -49q-23 14 -23 22q-4 19 -4 31z" />
<glyph unicode="&#xff;" horiz-adv-x="591" d="M-229 -641q248 199 475 594q-2 10 -49 47q-82 63 -107 254l-29 252q6 51 33 51q23 0 42.5 -31.5t19.5 -56.5q2 -123 18 -248t113 -180q127 217 209 414q45 18 49 18q14 0 22 -14l21 -21q-14 -53 -64 -139q-53 -94 -69 -137q-51 -78 -47 -117q-125 -209 -175 -283 q-100 -154 -196 -270q-86 -76 -119 -94q-65 -39 -147 -39zM182 762q0 57 47 57q16 -4 31.5 -9t20.5 -24v-28q-6 -59 -64 -66q-31 18 -31 31q-4 23 -4 39zM463 758q0 43 37 43q12 -2 24.5 -6t14.5 -19v-22q-4 -45 -50 -49q-23 14 -22 22q-4 19 -4 31z" />
<glyph unicode="&#x131;" horiz-adv-x="2748" d="M12 406q0 8 4 14q12 12 27 10h4q4 -4 8 4q20 8 58 21q63 20 147 57q-47 37 -154 133q-6 16 -24 37q-2 6 -6 14l8 -2l4 13q8 4 12 4t13 -4l2 -2l114 10q25 2 84 -4q4 2 19 2q0 8 -4 27.5t-4 29.5l-58 162l4 12h-2v2q0 12 13 21q8 -4 41 -23q16 -10 61 -57q39 -41 68 -47 q4 12 16 32q10 39 27 113v8l-5 -4q12 43 29 178q10 6 17 7q8 0 10 -7l6 -4l10 -2q0 2 19 -59q4 -14 16 -37q14 -39 49 -117q8 14 25 78l18 68l8 63l17 92q2 14 24 13q14 -8 24.5 -28t16.5 -26q25 -61 84 -178q18 94 72 275q31 0 43 -19q14 -29 20 -31q35 -59 99 -180 q18 27 57 74l4 16l4 -2q16 25 43 76l13 18q6 12 16 13q8 0 20 -8q6 -12 19 -43q25 -61 37 -150q14 33 84 111l8 20l2 -2q12 14 29 41q2 8 10 16l2 5q4 0 4 4l10 12q0 2 2 2v2q4 4 10 4q18 0 52 -86q14 -57 16 -106l4 8l6 6l4 2l9 10q10 12 20 15q2 6 10 10l4 2q2 0 2 6 q33 25 89 80l12 12l4 8q10 10 18 11q8 0 15 -7l8 -4q12 -41 18 -104q-4 -4 -2 -10q4 -6 2 -11q-2 -4 -2 -22v-12l8 24l-6 -29l2 3q16 23 17 36q8 2 12 7v6q4 8 10 14q12 16 29 43l14 16l47 56q14 -4 33 -21q-4 -43 0 -119q2 -31 -2 -79q-2 -27 0 -84l152 108q14 6 34 31 q12 10 37 26q6 10 19 15h12q16 -16 16 -43q0 -18 -10 -43q2 -8 -8 -29l-45 -147v-11l-2 -4q86 51 264 131q23 8 37 9q10 0 16 -4q6 -10 6 -21q0 -12 -10 -29q-16 -23 -18 -24q-51 -57 -142 -180q12 4 23 4q49 16 281 34l8 -2l2 2q14 0 20 -4q10 -12 11 -22q0 -10 -13 -21 q-23 -4 -55 -22q-39 -23 -55 -29l-99 -61h4l7 -2q4 -2 8 -3t55 -18q100 -31 168 -61q29 -23 25 -45q-82 -33 -152 -64q-49 -23 -86 -35l4 -2q8 -8 10 -12l109 -111q8 -2 8 -6l8 -10q10 -10 17 -10q18 -14 18 -31q-4 -10 -24 -22q-53 2 -127 -7q-29 2 -91 -4l7 -34 q10 -61 30 -123q6 -10 15.5 -33t13.5 -31t4 -14q0 -18 -29 -19q-20 18 -114 66l-45 22q-2 -12 -11 -36q-10 -94 -53 -275q-8 -6 -14 -6q-8 0 -16.5 8t-10.5 8q-25 39 -82 113q-49 -80 -65 -158l-2 4q-10 -29 -19 -79q-10 -10 -20 -11q-8 0 -17 9q-49 74 -86 139q-4 6 -4 10 l-6 8l-2 4q-33 -51 -164 -239q-23 -2 -41 32q-14 53 -57 152q-37 -51 -121 -145q-4 -10 -10 -11l-37 -51q-8 -6 -16 -6q-14 0 -27 18q-18 66 -72 191l-2 -2q-8 -8 -16 -14l-176 -162q-8 0 -15 -6l-4 -7q-10 -10 -24 -10q-8 0 -19 4q-14 27 -18 146q-2 6 -2 18t-2 19 q2 14 -6.5 35.5t-8.5 31.5q-59 -31 -184 -84q-6 -6 -31 -16q-4 0 -16 -10q-18 23 -18 39q0 4 14 49q10 20 39 108h-6l-244 -104q-8 8 -20 43q8 37 28 86l35 84q-4 6 0 10q-41 -16 -182 -57q-8 -4 -35 -11q-39 -8 -66 2q-4 47 25 84q45 59 47 66l10 22h4q14 18 39 58l-90 -4 q-139 -6 -205 10q-31 8 -30 33q0 6 2 14q10 20 36.5 32.5t32.5 18.5q35 16 101 56q-109 29 -129 34q-80 23 -121 47q-8 2 -14 9l-3 2q-8 19 -8 33zM88 389q4 -2 105 -33q51 -6 157 -45q4 -12 8 -22q2 -14 -10 -23q-31 -27 -76 -53q-68 -41 -82 -47h11q10 -2 35 -6q10 2 20 2 q14 0 31 -4l2 2q10 6 22 4h58q8 4 25.5 4t25.5 4h35q47 0 41 -33v-20l-54 -84q-23 -29 -61 -88q27 2 59 8q23 8 33 8q23 10 82 33q10 4 33 12l30 12q23 2 29 -24q-2 -31 -45 -158l-2 -4q-2 -8 -10 -35q27 8 92 41q8 4 74 35h-6q55 16 77 37q6 -2 9 -4h6q10 0 20 -12 q0 -4 -10 -68q-18 -45 -12 -66l-11 -2l-14 -41l94 41q31 8 82 43v2q4 16 13 19l8 2q20 0 24 -8l4 -4q8 -6 9 -15q0 -6 -5 -12q0 -8 7.5 -25.5t7.5 -25.5q6 -57 12 -168q27 16 39 33q14 8 18 14h2q4 10 17 23l4 4l4 2l10 8q4 6 11 8q29 33 49 51.5t75 59.5q16 -16 37 -52 q18 -53 58 -157l47 49q10 10 26 39l7 6q6 6 10 8q45 70 71 103q8 14 19 14q8 0 20 -12q29 -51 74 -170q14 20 45 57q0 4 6 14q4 2 11 11l6 8q4 0 7 8t34 55q16 20 37 68q6 10 30 10q20 -37 78 -123q6 -8 19 -31l2 7q2 4 4 24q8 31 34 88v2l3 2l-3 4q2 4 7 9q14 23 41 77 q10 20 38 11q27 -43 89 -119q0 6 2 16v17q4 8 7 24.5t7 24.5q4 23 8 57q2 -16 6 47q4 23 4 56q4 2 6.5 20t12.5 31q31 4 37 -2l112 -47l-20 53q-6 33 -21 96q-10 45 -8 49q6 16 29 13q59 2 180 16q-37 41 -61 55l-4 6l-3 2q0 2 -6 4q-31 37 -61 68l-4 4q-14 18 -8 37 q20 10 61 25l135 59l4 4h2l6 4q2 0 5 2h2q-31 12 -76 27q-18 10 -94 26q-59 12 -86 48q0 25 20 26l43 29q4 4 16 12l7 2q6 2 14 13q16 10 51 24l2 2q-20 -2 -47 -8q6 -2 -37 -2q-8 -4 -16 -2q-59 -8 -152 -39q-27 12 -28 37q14 23 45 65q0 8 8 13l4 2l4 12q6 6 16 18 q29 39 91 113l4 4q-45 -14 -134.5 -69.5t-142.5 -67.5q-23 10 -20 31q2 27 0 30q6 27 22 78q0 8 5 23.5t5 23.5q8 8 10.5 27.5t8.5 28.5q4 2 4 6v4q-41 -37 -137 -107q-8 -2 -15 -8l-8 -4q-4 -4 -6 -4q-18 -20 -67 -43q-25 4 -25 43q4 16 0 43q2 10 2 111q-2 14 2 43 q-6 14 -2 34v9q-31 -39 -84 -138q-23 -43 -49 -75q-6 -4 -12 -5q-29 0 -29 50q0 12 5 40.5t3 45.5q4 16 0 45q-4 31 -4 45q-41 -35 -117 -109q-16 -29 -55 -84q-6 -4 -12 -4t-13 6l-2 2q-18 37 -18 78q0 14 2 31q0 16 -10 47q-4 12 -8 41q0 4 -5 14l-145 -205v-4 q-8 -20 -25 -18q-12 0 -24 22q-8 37 -21 111q-14 29 -20 72q-6 -12 -14 -21l-117 -168q-23 -2 -41 33q-23 72 -105 195q-14 -41 -20 -68q-16 -70 -35 -174l-2 -6v-8q0 -16 -12 -25q-12 -2 -27 4q-14 23 -88 162q-4 8 -16 35q-6 4 -10 16l-3 -6q-6 -57 -8 -49 q-8 -43 -30 -131q-2 -10 -11 -35q-2 -14 -14 -43q-2 -12 -5 -24.5t-18 -16.5q-16 -4 -22 10q-6 6 -10 19q-39 72 -74 168l-25 -136q-14 -78 -41 -129q-12 -10 -22 -10q8 0 -41 17q-14 6 -84 73q35 -74 49 -174q2 -18 -9 -25.5t-30 -7.5q-131 6 -168 0q-4 -2 -14 -2h-4 l16 -16q33 -20 88 -72q51 -23 60 -69q2 -10 -6 -19l-5 -4l-161 -65q-45 -13 -68 -23zM377 -61l2 2q10 2 8 2h-8zM1755 1081h2l2 4v7zM1759 1085q2 0 2 2z" />
<glyph unicode="&#x152;" horiz-adv-x="1148" d="M70 436q8 78 20 122t51 114q8 18 54 59l-2 -2q88 74 176 82q2 0 2 2h2l2 2l4 2q16 16 27 17l2 2v-2l12 6q12 6 10 6q49 16 109 16q66 0 231 -51q113 -35 178 -121q35 -47 64 -100q12 -33 10 -55q6 -23 6 -93q-4 -12 -4 -16l-2 -8q2 -6 -2 -21q-2 -2 -2 -10t-4 -12 q-10 -23 -21 -39q0 -6 -6 -12l-2 -2q-6 -8 -14 -21l-13 -14q-18 -27 -104 -92q-12 -10 -33 -21l-4 -4l-2 2q-33 -23 -74 -37q-4 -4 -30 -14q-16 -4 -27 -6q-23 -10 -51 -15l-2 -4l-53 -2l-3 -2q-10 2 -32 -2q-12 -2 -35 2h-25q-35 4 -39 4l-34 6q-61 20 -93 37h-4 q-78 33 -139 99q-14 10 -39 41q-51 53 -65 157zM113 440l18 -88q59 -106 165.5 -162.5t231.5 -56.5q109 0 170 33q84 16 173.5 95t109.5 159q4 37 4 69q0 84 -28.5 129.5t-100.5 110.5l-115 49q-4 2 -18 6q-25 4 -39 13q-127 25 -154 22q-16 2 -77 -6l-2 -2l-5 -2h-6l-18 -8 q14 -10 18 -27q0 -18 -18 -22l-12 -4q2 0 4 -3q12 2 34.5 8.5t34.5 8.5q2 0 9.5 2t9.5 2q53 8 155 18q8 0 21 2q12 2 18 0q16 -8 21 -22l4 -25q8 -25 12 -34q2 -2 2 -5q20 8 68 21h8q12 4 20.5 -9.5t6.5 -25.5q-2 -2 -13 -18q-23 -37 -63 -136l6 3q18 4 33 4q43 0 53 -70 q4 -31 20 -74q6 -10 7 -18q0 -10 -7 -17l-4 -4q-4 -2 -16 -22q-6 -10 -8 -12l-10 -11q-20 -33 -37 -49q-2 -4 -8 -14l-7 -6q0 -8 -6 -13l-2 -2h-2q-6 -4 -16 -4q-6 0 -13.5 1t-27 6.5t-29.5 5.5l-57 12v-6q6 -23 20 -66q-8 -23 -24 -22l-4 2v-2q-53 31 -136 112l2 -6 q0 -4 3 -14v-17q-8 -10 -17 -12q-4 -2 -14 0q-12 2 -17 2q-18 6 -62 7t-67 12q-14 16 -47 47l-49 47q-16 14 -22 37q6 16 16 16l35 84l-4 -2q-37 -6 -33 -6q-18 27 -14 51l24 2l19 18q29 29 61 52q-18 4 -18 22q-2 4 -2 8v9q6 6 20 12q2 0 2 2q6 16 16 27q12 18 37 51v6 q8 12 23 18q2 2 8 6.5t12 4.5q4 16 0 16q-10 6 -28 2q-27 -6 -31 -6q-70 -20 -139 -84q-35 -39 -54 -86q0 -10 -6 -17l-4 -6v-2q-4 -14 -12 -39q0 -10 -6 -33.5t-4 -35.5v-6q-2 -4 -2 -7v-6zM252 358l70 -69q6 12 7 21t3 22l-4 4l-4 2q-6 6 -5 16q0 16 27 25q14 45 16 88 q14 25 33 16q-10 29 -41 80l-67 -45v-2q16 0 28 -6l9 -10q8 -14 6 -23q-6 -14 -21 -14q-6 0 -14 2q-2 -8 -21 -47q4 4 10 12l9 14q-4 -8 -8 -14q-13 -23 -33 -72zM350 627q35 -2 99 -11q31 35 71 74l4 2l-6 4q-23 4 -31 21q-16 -2 -79 -21q-2 -4 -11 -12v-2q-6 -4 -22 -20 q0 -10 -10 -11l-5 -8q-4 -4 -10 -16zM365 272q4 0 8 -2q25 0 73 -4q0 55 -4 84l-65 -12q-12 -54 -12 -66zM393 389q33 8 60 10l4 -8l6 -2q2 0 8 -2q10 -10 14 -25q2 2 54 93q6 6 12 6t14 -4q4 2 10 2q18 0 31 -39l6 -19v-8q18 2 72 10q-4 25 -6 39l-2 4q-6 4 -10 11 q-20 -4 -31 28q6 10 10 13l2 2q18 8 41 14q-59 23 -90 29l-10 2q-10 2 -21.5 4t-17.5 18q8 29 55 62q-14 16 -31 24q-6 10 -14 13l-6 -7l-14 -10q-8 -6 -23 -24l-6 -4q-12 -14 -33 -50q-8 -6 -18 -6q-8 0 -19 6q-12 0 -41 4q14 -35 47 -102q2 -4 11.5 -17.5t9.5 -25.5 q4 -23 -18 -22q-8 0 -15 6h-2q-16 12 -29 16q-4 -25 -10 -41zM508 307l82 -84q-8 37 -10 58q8 16 18 16q6 0 15.5 -2t35 -7t37.5 -5q23 -4 64 -13l4 4q39 45 59 86q2 4 6 11l4 6q-29 0 -84 -10q-4 0 -15 -6.5t-19 -6.5l-5 4q-4 0 -84 -12q-4 0 -10 -4h-22q-12 0 -17 16 q-4 14 4 25l-6 25l-2 -5l-4 -4q0 -4 -31 -51q-8 -12 -20 -41zM547 729q25 -16 69 -53l33 -21q20 6 29 -16q0 -31 -23 -31l-39 -26q20 -4 62 -17q14 -6 43 -16l53 115l-55 -19q-27 35 -37 80q-4 4 -8 16q2 2 0 2q-45 -2 -127 -14zM588 545q4 0 10 -2l18 -4l-2 2q-16 4 -26 4z M588 545l10 -2q-6 2 -10 2zM715 473q4 -20 10 -63q39 4 61.5 7t30.5 5t2 2v8q-4 23 -18 64q-29 -7 -86 -23zM799 186l6 -6l4 -4q-4 6 -10 10z" />
<glyph unicode="&#x153;" horiz-adv-x="608" d="M27 84q0 20 8 74q8 6 8 12l2 8q6 27 16 33q53 113 142 188q33 59 149 109q49 0 66 -23l-33 -36q-35 -39 -57 -43q-25 -12 -56 -44l-51 -51q-125 -147 -112 -252q10 -12 24 -20q47 0 105 49q25 272 280 487q20 16 51 17q63 0 74 -51q-4 -16 -2 -25q0 -68 -23 -86 q-6 -27 -31.5 -71t-31.5 -66q-68 -86 -231 -234q27 -80 110 -79q45 0 101 -19q-88 -23 -138 -22q-66 0 -98 32q-4 2 -39 43q-12 14 -29 -4q-37 -25 -90 -24q-114 0 -114 98zM338 162q209 180 227 346q-12 -14 -45 -37q-147 -145 -182 -309z" />
<glyph unicode="&#x178;" horiz-adv-x="815" d="M-39 -84q8 39 45 59q29 16 31 37q74 57 139 131l123 146q25 27 59 88q18 18 43 57q-31 49 -26 72q-20 25 -62 141l23 8q-35 98 -53 246l-27 252q6 20 35 57q8 2 16 2q27 0 43 -30l4 -6q2 -4 6 -11q-2 -39 9 -241q12 -262 90 -400q92 106 196 322q16 35 90 162 q18 45 46 137q33 16 49 16q33 0 32 -47q0 -16 -36 -92q-12 -23 -13 -45q-18 -8 -18 -23q-4 -20 -14 -30h-3q-20 -45 -141 -269l-88 -127q-2 -6 -47 -65q-25 -33 0 -57l-6 -25q-31 -16 -86 -59q-57 -59 -166 -191q-31 -20 -121 -117q-70 -74 -143 -92v-6h-29zM408 1438 q0 57 47 57q16 -4 31.5 -9t19.5 -24v-28q-6 -59 -64 -66q-31 18 -30 31q-4 23 -4 39zM688 1434q0 43 37 43q12 -2 24.5 -6.5t14.5 -18.5v-22q-4 -45 -49 -50q-23 14 -23 23q-4 19 -4 31z" />
<glyph unicode="&#x17d;" horiz-adv-x="1091" d="M-94 14q-4 53 39 92l82 64l514 309q70 43 108 70q152 104 191 135q104 80 168 160q-59 25 -203 22q-203 -2 -369 -35q-18 -12 -80 -16q-53 -2 -73 -24q-57 0 -322 -23q-16 8 -16 31q0 18 12 45l35 33q154 0 393 36q309 47 387 52q276 14 338 -88q-14 -74 -78 -132 l-114 -100q-250 -184 -685 -446l-100 -58q-53 -31 -86 -75q12 -6 43 -5q80 6 262 41l336 66q180 33 342 27q25 0 25 -27q0 -20 -13 -41l-133 -16q-172 -20 -329 -50q-14 -12 -48 -12t-45 -10q-12 -2 -217 -49q-133 -31 -217 -31q-86 0 -147 55zM346 1335q10 16 27 17 q27 0 36 -32l25 -85q33 -104 80 -168q43 49 59 127q2 12 11 31q0 10 8 25.5t9 20.5t13 17q-4 2 -4 4q2 2 11 2l-7 -6q2 -2 7 -2q43 -14 43 -39q0 -8 -5 -20q-27 -74 -51 -119q-12 -10 -23.5 -32.5t-23.5 -33.5q-27 -20 -74 -12q-20 18 -43 62q-27 51 -36 65q-2 8 -13 19v14 q-29 78 -41 117q-2 1 -8 28z" />
<glyph unicode="&#x17e;" horiz-adv-x="708" d="M-20 10q-4 31 40 64q121 55 287 151q45 27 154 117l16 29q-55 35 -135 35q-49 0 -182 -27q-29 -6 -78 27q-6 12 -6 22q0 18 26 25q4 2 15 4q8 -2 16 -2q12 0 38 7t40 5q82 8 129 8q143 0 211 -63q10 -12 10 -31q0 -18 -12 -45l-10 -8l-2 -4q-6 -8 -23 -23q-2 -10 -12 -16 l-21 -9q-2 -4 -4 -12q-20 -8 -62 -42t-69 -42q-41 -29 -131 -76q-16 -16 -65 -41q-29 -6 -64 -34h4q6 0 14 -6q47 -2 166 18q106 18 199 0q-16 -16 -16 -29q-211 -41 -387 -53l-49 23q-25 12 -37 28zM225 811v25q8 10 19 10q25 0 27.5 -31t9.5 -76q8 -94 36 -153 q43 35 68 98q2 8 14 23q0 8 9.5 20t11.5 16.5t12 12.5q0 2 6 4l-6 -4q12 -6 23.5 -14.5t11.5 -22.5q0 -10 -8 -23q-33 -57 -60 -92q-12 -6 -24.5 -22.5t-24.5 -22.5q-25 -12 -59 0q-16 18 -27 57q-12 47 -18 62q-2 4 -2 9t-6 7l2 13q-11 69 -15 104z" />
<glyph unicode="&#x192;" horiz-adv-x="1517" d="M49 719q4 35 14 74q6 23 21 49q49 119 137 178q63 49 199 135q86 45 143 64q6 0 22.5 6t24.5 6q37 12 140 14q90 2 124 -16q12 -10 21 -29q14 2 94 -24q8 -4 25 -15q47 -20 119 -55q59 -33 102 -76q106 -106 186 -280q23 -70 23 -148q0 -88 -29 -170q-4 -16 -16 -45 l-4 -4v-8q-4 -8 -19 -23v-4q-4 -10 -4 -20h-6l-2 -4l6 -7q-12 -6 -18 -12l-2 -4l-9 -16l11 6q-12 -14 -35 -43q-4 -8 -25 -31q-2 -4 -8 -10l-4 -2l-27 -33h-2q-41 -41 -75 -66q-10 -8 -39 -28v-2q10 4 39 30q23 23 41 23q4 4 10 4q8 0 16 -4q0 -25 -20 -37l-4 -4 q-6 -6 -20.5 -19.5t-45.5 -35.5q-4 -6 -25 -10q-2 2 -2 -5q-33 -12 -44 -18t-70 -33q-80 -37 -168 -33q-4 -6 -23 -6v2l-4 -4q-133 -8 -185 15.5t-143 58.5l-155 88q-84 49 -133 119q-43 47 -95 135q-31 70 -45 135q-8 35 -8 84v6q0 25 -2 76t-2 76zM102 573q14 -92 91 -219 q35 -61 65 -92q0 45 2 66q-8 12 -12 37q-14 20 -51 118q-4 16 -4 39q0 31 6 74q10 12 39 39q37 35 22 96q-4 14 -20 31l-9 8q-14 8 -45 39l-14 14l-14 -43q-35 -86 -45 -131q-2 -12 -4 -37q-1 -16 -7 -39zM195 860q23 -20 63 -61l16 -17q2 0 7 -4q25 -39 24 -86 q0 -49 -49 -106q-20 -18 -12 -72q2 -12 2 -31q8 -27 28 -75v-11h2q4 -4 5 -10q12 -16 24 -57q2 -31 -4 -97q6 -8 2 -20q158 -150 342 -184q14 0 41 -6q106 -4 148 -5q10 2 29.5 5.5t29.5 5.5q-12 4 -14 12q-16 16 -27 22l-23 23q-8 4 -22 10q-27 6 -39 23q-49 8 -59 43 q0 43 -7 125q-8 10 -8 20q0 8 6.5 22.5t6.5 22.5h-7q-20 -14 -60 -26.5t-55.5 -21.5t-21.5 -9q-16 2 -24 18q-4 31 -27 37q-8 0 -12 2q-47 -2 -70 8q-33 14 -24 58v10q-4 10 4 18q0 16 -8.5 50t-8.5 51q0 27 27 61q43 35 96 35q16 0 31 -4q20 6 50 -14.5t42 -14.5 q18 10 57 25q10 0 23 12q20 14 22 17q14 8 23 16q8 18 8 41q0 29 -12 61h-17q8 -29 5 -39l6 7q-23 -33 -35 -37q-25 -4 -74 -11q4 -14 -12 -32q-29 -33 -78 -17q-12 4 -24.5 13.5t-12.5 33.5q0 20 11.5 49t39.5 93q23 51 23 59q-8 12 -51 19.5t-52 23.5q0 4 -6 14 q4 27 31 52q10 16 41 39l29 28q18 14 57 37q-72 -4 -123 -16q-25 -8 -86 -25q-47 -12 -113 -49q-67 -66 -124 -164zM358 225q6 12 25 29q12 8 33 25q16 -2 26 -13l7 -6q20 -20 22 -45q-6 -14 -20 -18h-5l-2 -2q-12 -8 -16 -9l-10 -4q-16 -6 -27 -6q-12 -2 -29 10 q-8 10 -4 39zM416 227l6 2l-2 2zM440 541q0 -14 10.5 -51t6.5 -58q-6 -33 -6 -31q0 -8 26 -8h45q37 -16 47 -37q2 -6 6 -6l17 8q16 8 29 4q29 14 86 37q55 -8 45 -55q-6 -16 -11 -35q0 -6 9 -22q2 -27 0 -97q0 -16 2 -20q25 -4 69 -39q16 -4 35 -16q23 -18 31 -23 q6 -10 53 -47q0 -6 -2 -6q51 8 131 49q39 8 53 53l13 78q-6 10 -7 17l-2 8v2l-2 -8q-6 51 -39 67q-12 0 -26 10l-8 7q-4 6 -4 20q2 4 2 10q10 18 36.5 34.5t34.5 25.5q16 6 29 6q10 0 18 -4q16 -6 31 -58q2 0 2 2h2l4 2q27 8 27 39q2 20 -27 21q-37 2 -53 21.5t-10 43.5 q-10 14 -27 43q-8 2 -24.5 7.5t-38.5 31.5q-2 18 -45 35q-6 4 -25 14q-2 6 6 35q33 4 47 -2q8 -10 37 -20.5t39 -18.5t16 -20l2 -4q4 -4 11 -2q14 -4 43 -15q14 10 18 19q0 41 10 92l-41 43q-16 33 -16 45q8 47 8 51q8 29 76 58q6 0 18 8q10 0 31 -11q6 -2 15 9l2 2v6l-2 -2 l-3 2q-2 2 -6 10q-14 6 -14 19l-6 12v-2l-4 2q-14 8 -27 37h-6q0 6 -12 18q-10 6 -17 17q-20 18 -53 36h-10q-6 -6 -27 -12l-16 -16q-12 -12 -41 -21q-37 -10 -45 -14h-15l-10 -4q-20 -4 -67 -6q-29 6 -57.5 48t-43.5 46h-16q-10 0 -16 12q-4 4 -23 10q-6 2 -27 17 q-2 4 -2 10q-25 4 -55 4q4 -6 6 -14q-39 -23 -96 -78q-2 -2 -8 -4l-4 -2q-18 -16 -47 -51q4 -2 12 -2l14 -2q8 0 12 -5q12 0 45 -18q20 -16 17 -66q-27 -55 -74 -170q-2 -2 0 -6l25 -6l6 4q4 2 10 6h-2l-2 5q-8 14 2 26q23 18 78 23q20 -2 22 2q6 12 -49 86q41 -41 47 -49 q0 18 11 28q20 10 39 10q14 0 26 -6q45 -31 45 -108q0 -55 -39 -86q-14 -16 -67 -39q-43 -25 -62 -27h-16q-23 -4 -39 10q-41 20 -51 19q-41 14 -96 -25q-9 -12 -9 -28zM475 1126q12 4 60 15q141 33 253 4q33 29 60 41l8 4q-12 6 -18 4q-12 6 -56 6q-14 0 -20 2 q-18 -4 -33 -4q-12 0 -22 2q-111 -13 -232 -74zM625 -10l39 -17q35 -8 73 -8q39 0 72 8q29 0 88 9q18 4 33 8q-63 -14 -133 -15q-94 -1 -172 15zM823 1126q4 -2 15 -16q-4 -6 7 -11t13 -9q18 -12 33 -37l8 -15q14 -27 37 -28q49 6 135 39q10 18 33 26q-18 8 -23 8 q-10 2 -18 11l-8 4h-2l-13 6q-8 -4 -12 -8q2 10 8 10l-8 2q-8 4 -12 8q-10 4 -21 10q-10 0 -31.5 12.5t-29.5 14.5q-14 2 -33 2q-45 0 -78 -29zM856 1186q2 0 2 2zM1098 586q2 -4 4 -6l2 -2q-2 4 -6 8zM1104 342q43 -23 59 -72q0 -12 6.5 -33.5t6.5 -33.5l-7 -45 q-6 -8 -6 -23l13 21q12 8 43 39q8 8 63 69q111 168 123 268q4 31 0 99q-2 78 -14 90v2q-6 6 -7 14l-2 4q0 2 -28 60q-2 4 -6 18q-2 4 -23 10q-6 -4 -10 -4q-20 -4 -31 4l-4 2q0 2 -4 3q-27 -6 -68 -33v-8q-2 -6 -2 -9l-4 -10q0 -2 2 -2v-8q2 -12 19 -35l8 -8q12 -10 26 -47 l-10 -94q-2 -12 -37 -54l-14 -4h4q-14 -4 -20 0q4 0 -11 2l-4 2q25 -37 23 -55v-4q8 0 45 -4q45 -20 45 -88q-2 -4 -2 -6l-4 -4q0 -14 -17 -23q-25 -31 -53 -31q-4 2 -8 2l-6 2q-27 6 -31 29q-4 14 -6 29q-16 -8 -47 -31zM1257 711q0 12 7 26l-4 6q4 20 34 33q33 4 60 -49 v-33l-45 -14q-23 -8 -47 8q-5 11 -5 23zM1307 723l2 2l-2 2v-4zM1311 725q2 2 0 2v-2zM1337 834l2 -3l2 -4q0 7 -4 7z" />
<glyph unicode="&#x2c6;" horiz-adv-x="989" d="M63 768v12q0 8 3 15q2 25 34 41q57 43 160 49q4 -2 8 -2h8q20 0 64 -13q2 27 20 72l-4 8h-2q-2 -2 -4 -2q-70 -10 -90 2q-41 25 -70 72l-2 6q-4 4 -8 16l4 -6q-2 8 -2 17q0 25 19 59q10 12 39 33q2 2 6 2h2q-4 31 -4 57q14 37 30 47l5 4q8 14 26 19q20 14 68 22 q4 0 12 3.5t12 3.5q29 12 62 6q4 0 12 2q6 0 8 -2h21v-4q55 -8 73 -64q6 4 15 12q43 33 86 48q6 6 12 6l4 2h8q6 6 21 6h2q8 2 18 6h9q2 0 6 2l4 -2q8 4 14 2h4q6 2 15 0h14q2 -2 8 0l21 -4q6 4 10 0h4q16 -2 47 -16q4 0 10 -5q37 -27 47 -75q8 -12 9 -43q2 -16 14 -19 q84 -53 84 -133v-47l-4 -4h2v-2l-8 -25l-7 -8l-4 -10l-18 -19q-4 -2 -8 -6l-2 -2l-29 -22h20q-35 -8 -88 -19l-14 -6h-2l18 -14q29 -20 25 -58q0 -6 -25 -49q-43 -37 -77 -45l-9 -2q-6 0 -45 -14q-8 4 -16 0q-10 -4 -16 -4l-7 -4h-28q-6 0 -12 -2q8 -4 8 -17q-4 -16 -4 -24 q-4 -16 -9 -25q-2 -31 -26 -72q0 -6 -6 -12q-4 -14 -39 -29q6 29 28 93q14 41 17 69q2 4 2 8v5q-12 -2 -21 -2h-14q-2 -2 -8 -3q-10 -2 -19 0q-29 0 -84 5q-6 4 -30 -5q-6 6 -31 11h-20q-4 2 -13 2h-8l-29 4q-18 2 -26 0l-8 4l2 -2h-5q-2 0 -8 2h-8q-12 0 -39 4q2 0 -37 8 l2 -8l-4 -10q2 0 2 2v-6q2 -2 -2 -11.5t-10 -25.5q-2 -4 -6 -8q-4 -14 -41 -58q-6 23 -2 39l2 8q6 14 11 33t16 51q-20 2 -57.5 10.5t-35.5 8.5q-6 4 -12 4l-12 2q-14 2 -25 12q-6 2 -33 33zM94 457q-4 20 0 28l2 7v6q4 20 17 59q8 6 18 6l12 -10q6 -10 2 -21 q-4 -10 -14 -43q-2 -2 -5 -8t-5 -8q-4 -12 -27 -16zM100 784q0 -2 2 -8q14 -16 95 -35q90 -20 174 -28q205 -20 274 -19q8 4 10 4q47 8 144 21q106 29 106 80q-10 27 -28 28q-10 12 -27 15q-33 12 -100 12q-12 6 -17 29q10 16 25 16q33 -4 24 -4q16 -4 41 -4q37 0 95 10 q4 0 8 2t24 8q2 2 8 4q55 29 64 60q6 12 6 31q0 14 -4 34q0 8 -6 21q-6 23 -31 47l-4 4l-22 14v-14l-19 10q-6 37 -27 103q-2 29 -34 47l-31 12q-29 4 -55 4q-37 0 -74 -6q-4 -2 -6 -4l-10 -4q-6 -2 -17 -2q-14 -8 -43 -21q-6 -2 -18 -14q-4 0 -9 -4l-4 -4q-10 -6 -28 -25 l-8 -8q-2 -2 -7 -4q-2 -12 -10 -12q-4 0 -12 6q4 4 6 2l-16 14q6 18 -7 49q-4 12 -24 19q-18 0 -23 4h-2q-4 2 -34 0q-47 -2 -89 -14q-6 -6 -14 -7l-8 -2q-4 -2 -37 -20l-4 -6v-2q-10 -8 -21 -37v-10q4 0 7 -9l6 -10q2 -8 16 -18q-2 -10 0 -29q0 -25 -8 -33l-18 8 q4 -2 4 -10h-2q-12 6 -13 27v10h-2q-8 -4 -14 -4q-33 -25 -33 -49q0 -23 41 -64q16 -16 47 -16q33 0 47 14l4 2q4 8 19 9q12 -4 14 -19q18 16 31 23q61 29 110 28q29 0 46 -12q10 14 26 43q31 27 66 35q39 8 82 -12l4 -5h-2l8 -6q0 -2 10 -13t10 -24l-4 -6h2q0 -8 -8 -16 q-12 0 -18 6l-2 2q-14 33 -50 37q-27 0 -38 -6h-2q-2 -2 -5 -2q-16 -8 -30 -23q-14 -29 -27 -67q-14 -2 -35 18q-6 6 -49 12l-72 -18q-72 -43 -67 -111q-2 -2 -2 -8l2 -6q2 -6 2 -10q0 -6 -4 -10l-2 2v-11q-4 -4 -13 -4q10 0 -45 17q-10 2 -32 8h-37q-14 0 -43 -8 q-4 0 -13.5 -3.5t-15.5 -3.5q-20 -6 -55 -28l-4 -2q-1 -3 -15 -17zM125 205q2 25 12 74q6 18 17 57q6 6 14 6q6 0 12 -2l2 -6v2q8 -6 8 -14q-8 -37 -24 -74l-6 -19l-4 -6q0 -4 -4 -14zM219 449l35 96q8 20 27 76q10 4 18 2h2l6 -2q6 -6 6 -15v2l2 -10q-4 -8 -11 -28.5 t-25 -57.5v-2q6 14 12 25l-17 -35l-24 -49l-14 -7h6q-2 -2 -6 -2q-7 1 -17 7zM348 334q4 10 12 84l9 22q12 12 24 4q8 -6 8 -18v-8q-2 -14 -14 -43v-6l-4 -9v-2l-2 -4h-2q-4 -16 -31 -20zM428 573q0 8 2 17q0 2 2 4l19 65q10 8 26 5q8 -8 8 -27q-4 -16 -22 -59 q-6 -16 -27 -33q-8 12 -8 28zM494 319q-4 12 43 177q4 12 20 8q12 -2 12 -15v-12q-14 -47 -49 -143l-6 -2h2v-2q-4 -7 -22 -11zM666 303q2 37 16 80q10 33 18 66q6 12 21 10q16 -12 14 -27q0 -6 -22 -63q-2 -8 -5 -17.5t-3 -7.5q-4 -8 -39 -41zM784 315q2 37 27 113 q23 4 29 -4q4 -18 2 -25q-2 -6 -6 -14l-7 -10v-2l37 47l-47 -68l-2 -8q-6 -13 -33 -29zM805 596v2q2 -2 26 76q6 4 15 4q8 0 16 -2q2 -18 -2 -29v-2q2 -8 -24 -49q-10 -16 -21 -16l-8 20q0 -2 -2 -4zM883 868l12 -8h2h2q-14 8 -16 8zM893 858l4 2h-2z" />
<glyph unicode="&#x2c7;" horiz-adv-x="1814" d="M213 395l2 8q0 2 2 3l19 -9v-4h-19q-2 6 -4 2zM272 395l2 8q0 2 2 3q8 -6 27 -13h-27q-2 6 -4 2zM373 418q0 25 22 24h4q10 16 13 35q6 8 12 8q8 0 18 -14q-2 -14 -10 -31q4 -2 6 -4q4 6 6 10.5t7 4.5q-6 4 -7 14q0 16 15 16h4q0 -2 4 -2q4 -2 4 0q8 -8 8 -12 q2 -6 -4 -12q0 2 2 4l-10 -8h-2q8 -4 8 -13q-2 -2 -10 -28l-2 -7v-6l-2 -4l4 2q4 -2 6 -6q2 31 27 105l2 6q8 12 16 12q6 0 14 -10q2 -12 -4 -19v2l-2 -8q-2 -2 -2 -6l-2 -8v-2q0 -8 -8 -23v-2l-6 -28l-4 -9v-12h22q-10 -23 -18 -31l4 -14q-2 4 -4 14l-8 -2q-12 -2 -17 0 q-4 4 -8 13l-12 -13q-4 -2 -10 -2q-10 0 -21 10q-8 -10 -20 -10q-12 -2 -25 6q-4 10 -4 23q0 12 4 25q-10 4 -10 12zM408 381l2 2q6 2 18 4q0 14 4 27h-12q-12 -21 -12 -33zM469 389h2v2zM492 96q-6 16 6 60q-8 8 -6 18q6 6 14 6q2 8 6 21l8 35q2 8 10 8l2 2h9l8 -6v-19 q0 2 2 2v-2l-6 -18q0 -2 -2 -8.5t-2 -10.5l-2 -2q10 2 26 6q0 2 2 2v3q6 18 17 40l2 5v-2q0 16 18 16q4 -2 14 -8q-2 -16 -12 -39l-10 -25q2 -8 -4 -14q-14 -31 -10 -47h2q0 45 39 74l10 2q4 0 12 -7h4q6 -6 8 -12q6 8 13 8q10 0 14 -16q4 2 16 10q18 0 21 -18l4 2l6 6l2 2 l6 4q2 0 6 4q16 8 23 10h10q12 -2 13 -12q0 -10 -11 -14h-2l-2 -2l-22 -10q4 -2 6 -5l2 -2q10 -6 14 -18q0 -4 -6 -16l-6 -7q-2 -4 -12 -14q4 6 6 10q-12 -6 -23 -6q-8 0 -14 4q-8 -4 -14 -4q-8 0 -13.5 7t-7.5 22l-16 -21q-10 -4 -19 0l-2 -2h-2l-6 -2q-8 -2 -12 2l-4 4 l-2 -2q-10 -10 -27 -8q-4 4 -8 10q-2 -4 -6 -6l-2 -2h-5q-25 12 -24 37q0 12 4 25l-14 -4q-2 -2 -9 -2h-4l-2 -3q-2 -10 -10 -28h2l-2 -2q6 -4 2 -19q-8 -4 -26 -2zM514 119q2 0 2 -2v2h-2zM586 330q2 16 6 37v-2q2 -10 -6 -35zM590 371q2 -2 2 -4zM592 365v2v-2zM621 176 l2 -2l2 6zM711 434zM719 127q2 2 6 4l10 -10h2l4 2l-8 4q-10 4 -14 10v-10zM733 145h2q-2 2 -2 0zM733 152l2 2q-2 0 -2 -2zM737 444l19 21l-6 -16q-6 -2 -11 -5h-2zM799 389zM846 113v10q4 25 4 31q12 59 14 88q0 6 4 14l17 4h-2h2q4 -2 12 -8q-8 -45 -23 -137q2 -4 3 -15 q-4 -10 -13 -10h-2q-22 11 -16 23zM883 260h2h-2zM895 182q-2 27 23 56q6 4 16 10l14 6q27 4 37 -2l6 -6q8 -8 8 -43q-2 -4 -2 -13v-2l-4 -4l-2 -6q-4 -8 -10 -24l-2 -2q0 -2 -4 -7q-12 -25 -21 -34q-10 -18 -22 -19q-6 0 -10 2q-4 12 2 25l2 4q8 8 10 12l4 6v2q2 4 5 8.5 t7 12.5q-14 -10 -30 -6q-21 6 -27 24zM924 188l28 15v-4l4 8v2l5 4v6q2 2 4 6h-9l-6 -4l-4 -4l-8 -4l-2 -2l-4 -6q-8 -9 -8 -17zM983 332q0 23 2 39l2 -2q2 -6 0 -19q-4 -26 -4 -18zM999 182q-2 27 23 56q6 4 16 10l15 6q29 4 39 -2l2 -4l2 -2q8 -8 8 -35q10 18 30.5 32.5 t34.5 2.5q6 -6 7 -17l-2 -4q-2 -4 -5 -6q4 -4 9 -16q0 -18 -25 -37v-2q4 -8 6 -10q8 -41 -35 -62q-20 0 -35.5 12.5t-9.5 30.5q2 6 8 17l11 10q4 4 12 10q-6 12 -8 21q-2 -4 -2 -9l-2 -6l-15 -28v2q-2 -6 -4 -7q-12 -25 -20 -34q-10 -18 -23 -19q-6 0 -10 2q-4 12 2 25l4 4 q4 4 8 12l4 6l3 2q0 4 3 8.5l7 10.5q-14 -6 -31 -4q-17 6 -27 24zM1028 188h2q6 0 27 15q2 0 2 -2l2 6l2 2q0 4 4 4q-2 4 0 6q0 2 2 6h-6l-6 -4q-4 0 -13 -8l-4 -2l-4 -6zM1110 127l4 -4q16 0 16 22q-4 4 -6 9v2q0 -4 -14 -29zM1110 680q-10 45 8 100v4q37 88 119 142.5 t176 54.5q47 0 94 -16q-18 12 -49 30l72 -39q78 -43 98 -69q37 -41 37 -92q0 -2 -4 -11l4 -2q12 -4 25 -22l12 -37q0 -53 -72 -109l-24 -12q-12 -8 -35 -6h-6q-4 0 -25 -4q2 -35 6 -74q0 -4 6 -53q4 -6 0 -12q2 -8 2 -13l2 -6q0 -8 3 -16v-17l6 -53q4 6 12 14l6 7l4 6l29 28 l22 22l23 21q20 -10 20 -22q0 -8 -12 -16q-2 0 -4 -2l-4 -5q-6 -4 -53 -61q-14 -35 -15 -39q-4 -12 -14 -12l6 -2l-8 2h-6q-2 -10 -17 -10q-12 0 -20 14v2q-23 0 -84 -10q-35 -4 -109 -23q0 -4 -2 -14l-2 -2q-2 -4 -4 -6q-4 -18 0 -25v-8q2 6 37 10q-6 -4 -16 -10l14 -10 q-2 2 0 6l4 -4l-6 -17q2 2 4 2v-2l-2 -4q-2 -4 -4 -6v-6h-16l-5 4q-4 0 -8 2v-6l-10 -2l2 -2l-2 -2q-4 -4 -10 -4q-4 0 -8 3t-7 7l-4 4l-2 4q0 2 -2 4q-8 -2 -20 -6h6q23 -4 29 -35q-43 -6 -54 -2l-18 -2q0 16 -4 25q-4 14 2 26q12 35 41 43q8 2 16 -4q0 12 2 31 q-14 -4 -18 8l-2 2l-2 4q-4 4 -13 17q-2 6 -71 47q59 -29 61 -35l-4 14l4 19q33 -23 51 -41h2l-4 8q-6 18 -8 22t0 17l-14 100q-6 39 -17 117h-2h-6l-4 2q-23 12 -59 27q-60 24 -76 98zM1130 195l3 -5q8 8 12 9l-6 6l-2 -2h-2q-9 -4 -5 -8zM1145 719q-6 -70 51 -107 q18 -6 51 -18q-4 4 -14 12q-18 12 -23 62q29 -6 39 -23l4 -6q6 -8 13 -8l16 4q4 2 21 12q16 -14 28 -8q14 0 43 -10q12 0 31 -15h12l-6 -18q-6 -16 -20 -12q-27 12 -48 14q10 -80 9 -102l2 10l-2 -57q2 -4 2 -11v-2q4 -6 0 -12q0 -63 2 -47q2 -2 2 -6v-2q0 -8 6 -27v-10 q4 -4 4 -13v-2q2 0 6 -4h2l2 2v7q-6 31 -6 122v82l2 -10v2l25 -2q4 -8 4 -16v-21q4 -6 0 -14q0 -25 7 -72t7 -69v-5h4q2 2 80 15q8 0 15 2l6 2v29q0 -4 -13 155l-6 64l-51 -8l51 12q0 16 -2 20l6 8q0 2 4.5 7.5t10.5 5.5q8 0 16 -8q2 10 12 12q74 -8 109 67q10 20 -6 46 l-4 -3q-8 -4 -13 -4h-2l-6 -4l-8 -4q-43 -14 -35 -14q-14 0 -20 10l-2 8q-2 12 18 23l8 6l19 6q18 16 18 39q0 45 -57 84q-45 33 -101 45h-4l-34 6q-10 2 -35 -2q-10 0 -66 -10q-20 -6 -35 -16q-8 -2 -24 -15q-10 -4 -49 -37l-43 -51q-8 -25 -9 -14q-20 -39 -24 -82z M1249 592h2h-2zM1284 598q2 -10 2 -18q6 -23 12 -70q4 -6 5 -33v-4q2 -10 8 -29l2 13q0 -33 6 -82l2 -8q-2 16 0 20q-2 12 -2 49v33q2 25 2 43v25q0 4 -2 53q0 4 2 8q-6 0 -10 -2q-4 4 -11 6q-6 -2 -16 -4zM1319 88q12 10 20 10q12 0 19 -14q4 -4 14 -12l6 -6l4 -3l2 -2 q53 -10 60 -10q14 2 43 0q47 8 96 29q23 12 59 45q29 41 29 70q0 14 -6 26l-6 19q-2 14 12 24q14 0 21 15q0 14 -2 14h-11q-4 -2 -12 -8l-6 -2v2l-6 -9l-2 -2q2 -4 -2 -26q-31 6 -37 24h-2q-8 0 -19 9q-2 12 4.5 24t6.5 17q25 37 65 32l8 -18l-4 -4q8 2 17 2q8 0 16 -2 q27 -35 27 -62q-6 -33 -31 -41q4 -14 4 -30q0 -27 -12 -62q-10 -23 -68 -92l12 23l-34 -17q-68 -39 -181 -39q-4 4 -6 4h-4q-49 0 -80 35q-16 29 -14 37zM1329 330l2 -2l2 -2l-4 12v-8zM1348 152q4 18 24 10l8 -8l2 -7l2 -2l7 2q6 0 8 3q12 6 20 2h4q6 -2 17 -13 q4 -8 -4 -22q-14 0 -19 -2q-33 -14 -53 -6q-20 29 -16 43zM1446 184v6q0 8 2 13l8 6q10 10 23 8l10 -12q4 -6 4 -10q0 -6 -6 -13l-8 -12h-17l-4 2l-10 2zM1468 70q-6 10 5 20q6 4 18 6q2 2 6 4l14 11q25 -10 17 -27q-6 -6 -6 -14q-31 -18 -45 -15l-7 11zM1538 608l2 -12 q8 2 10 2zM1661 782z" />
<glyph unicode="&#x2d8;" horiz-adv-x="1734" d="M74 506q0 14 2 18l117 86q98 70 196 148q4 10 10 10l7 2h8l8 -4v2l18 6l17 -8q49 -104 69 -293q27 -4 45 0q-12 88 -10 143q-2 16 2 44t4 40q2 4 2 13.5t2 13.5q4 59 4 121q0 61 -4 125q4 16 7.5 22t17.5 9q6 -4 14 -23q0 -4 -2 -8v-2l2 -6q2 -14 0 -43q4 -16 2 -25 q-2 -31 -2 -96q0 -35 -4 -47q2 -27 -4 -52q2 -12 0 -53q-4 -76 4 -147l6 -25q8 0 13 2h10q2 2 12 3t55 3q0 10 -6 31q0 18 23 221q2 8 4 21q-2 4 0 12l2 4q0 33 4 45v76q2 4 2 14v13q-2 2 -2 8q0 -2 2 -2l14 16q10 -4 11 -14l2 -6q4 -23 4 -29v-74l-2 -4q0 -27 -4 -37 q-8 -55 -13 -153q0 -23 -4 -49v-29q0 -6 6 -62l93 2q-4 45 26 261q18 131 8 235q10 4 31 4q0 -10 6 -53q0 12 6 37q0 -47 -6 -142q2 -4 0 -14v-6q-4 -45 -10 -66q2 -6 -2 -18q-2 -35 -12 -106q-2 -4 -2 -11l-2 -8v-8q2 -6 0 -14q0 -20 -4 -33v-33q0 -2 2 -2v-20h71 q-2 39 12 114l39 228q12 70 13 112q29 0 28 -14v-4q0 -2 -4 -4l2 -2q8 -6 4 -17q0 -6 -2 -8v-29q0 -14 -12 -73q2 -8 -4 -19l-6 -47l-4 -8l2 2v-2q0 -8 -4 -16l-10 -54q0 -20 -9 -65q2 -8 0 -19q-4 -12 -4 -16v-59h41q-6 55 25 180q2 2 4 6v8q0 10 24 98q4 8 9 29q0 6 8 10 q0 -2 -4 -8l20 8l10 -20q-4 -6 -4 -10l-2 -9q-4 -8 -8 -14q0 -12 -6 -34.5t-7 -33t-9 -51.5l-5 -12l-6 -39q-2 -14 -6 -47q2 -18 -4 -55v2q-2 -12 -2 -11q35 0 51 3q4 49 56 194v2q0 2 2 6q4 14 20 58q12 -39 8 -50q4 -8 2 -16q-4 -8 -32 -135q-6 -18 -17 -57q16 4 47 -2 l-4 4h2l17 -7v7q57 68 217 237l6 6q35 35 78 90q14 4 32 -12q-6 -8 -4 -14q-4 -41 -45 -141q-2 -12 -16 -37q0 -8 -6 -15v-6q-29 -49 -82 -151q8 -31 31 -66l4 -4l32 -51l23 -41q29 -57 102 -166q25 -37 45 -72l-6 -16q2 4 6 4q-4 -14 -18 -16q-16 8 -47 31l-42 33 q-11 9 -36 26q-8 10 -35 30l-55 60l-105 112q-12 14 -43 54q-16 25 -45 80h-20v-2q4 -23 8 -62q4 -29 2 -47q-2 -23 -2 -88q-2 -4 -2 -29q-2 -8 -2 -24q-2 -8 -33 -56q0 63 6 90q2 43 0 127l-18 89h-10q-23 0 -66 -3q8 -25 8 -44t4.5 -69t4.5 -75q-2 -27 0 -90l-19 -62 q-10 45 -12 82q-4 82 -21 236l-6 25q-23 -4 -41 2h-8q-6 -2 -8 -2q2 -10 6 -82q6 -96 6 -119l-4 -2q0 -12 -3 -59.5t-3 -84.5v-12q-4 -8 -23 -51q-2 27 -8 57v19v72v38q2 10 2 4q0 4 2 33q4 61 -16 187q-6 -2 -64 -3h-26q8 -25 16 -67q14 -68 17 -109l2 -8v-65q-2 -2 -2 -4 v-7q0 -10 -2 -14q6 -57 2 -129q2 -6 2 -27l-21 -22q-4 10 -14 55q0 10 2 21q-4 4 0 8v76q0 23 -4 65l2 6h-2v11q0 59 -29 186q-2 12 -2 24q-61 -2 -82 -4q18 -82 19 -225v-39q2 -10 2 -84q0 -8 -17 -35q-14 8 -14 13l-2 -4v75q0 33 -4 54q0 51 -8 114l4 -6l-19 133l-2 2 q-10 0 -106 -10q8 -4 18 -12q8 -68 4 -92v-56q-2 -72 -2 -53q0 -51 8 -108q0 -8 4 -27q0 -20 -20 -51q-16 49 -18 71q0 -8 -5 50q-2 66 -10 235q-2 4 -2 12q0 12 4 31q-18 -2 -30 -2h-7v-25q0 -109 -2 -159q-2 -14 2 -45l-4 -41q-4 -35 -28 -45q2 -6 0 -15q-12 -10 -25 -6 q-12 4 -18 4q-14 2 -49 6l-101 13q-27 -2 -74 8q-20 4 -12 35q96 92 137 143l-8 6q-12 6 -31 19l-2 2q-6 -2 -22 10l-2 4q-2 2 -10.5 3t-12.5 5l-4 4q8 0 -57 33q-2 6 -4 6l-6 2q0 4 -9 6l-92 74q-6 6 -18 23zM123 504q8 -6 22 -23q43 -41 121 -84l131 -71l4 -17q0 2 2 2 q0 -18 -2 -22l-75 -82q12 8 36 20q-63 -45 -77 -59l-9 -10q10 0 15 -2q63 -6 192 -25l6 -6q0 27 3 63q4 49 4 68v166q0 10 -7 27v73q0 4 -4 33q-10 68 -28 115q-4 12 -19 45q-8 14 -12 26q-2 -4 -4 -6q-6 -18 -45 -45l-6 -4q-12 -10 -35 -24q-14 -12 -47 -33 q-10 -10 -62 -45q-2 -2 -57 -45q-24 -12 -47 -35zM287 569q10 10 20 11h4q-6 2 37 8l-4 14q-4 16 0 31q8 12 23 8q14 -4 14 -23v-2l-2 2l4 -6l2 -10h4q20 6 68 16q10 -10 10 -18q0 -4 -4 -8q-10 -4 -29 -14q-16 -2 -41 -17q0 -4 2 -12l8 -33q6 -27 5 -41l-5 -6 q-8 -12 -30 -4v31q-4 16 -15 51q-35 -12 -63 -8q-8 7 -8 30zM1206 492q8 -8 13 -9q0 4 2 6q-9 1 -15 3zM1217 461l6 6h-4zM1221 489l6 -2zM1253 455q12 -20 33 -60q35 -47 80 -96q66 -74 105.5 -111.5t78.5 -68.5l-34 57l-3 2l-6 12l-129 209q-20 45 -20 64q6 16 31 55 q66 111 100 209q-10 -12 -21 -22l-2 -3q-4 -4 -8 -6l-2 -2v2l-2 -8l-16 -16q-6 -8 -21 -21q-2 -10 -14 -18l-2 -2q-4 -6 -12 -17l-23 -22v-2l-37 -37l-4 -2v-2l-2 -2q-6 -8 -14 -15l-49 -57q3 -12 -7 -20z" />
<glyph unicode="&#x2d9;" horiz-adv-x="542" d="M162 1380q0 39 57 125q66 16 96 17q59 0 91 -39l-21 -113q-18 -63 -61 -90q-78 0 -88 2q-49 10 -62 53q-12 22 -12 45z" />
<glyph unicode="&#x2da;" horiz-adv-x="2105" d="M51 367q0 10 15 20q92 37 176 45q66 16 188 64q14 -4 41 7t37 13t74 23q-55 63 -185 188q-88 59 -143 109q-20 12 -39.5 26.5t-24.5 32.5q2 33 50 25q8 0 16 2q16 0 49 -9q43 -6 191 -45q55 -14 241 -45q-39 76 -110 232l-27 63q-10 20 -25 74l-67 168q12 20 31 20 q10 0 24 -6q27 -8 72 -45q10 -4 80 -53q25 -25 131 -119l10 -8q16 -14 109 -107q35 66 133 226q16 29 53 104q10 6 20 6q18 0 33 -18l6 -6q2 -4 11 -13q43 -98 104 -317q2 -43 10 -129q16 2 50 10t53 10q61 18 180 62q23 8 59 35q8 2 11 2l8 4q6 2 28 0v-10l2 2l7 -17l2 -2 v-2q0 -45 -52 -96q-16 -16 -45 -57l-165 -193q12 -4 16 -10q70 -25 223 -70l-2 -8q72 -18 213 -59q6 0 53 -9q8 -2 21 -2q16 0 39 4l-11 -20q4 -2 23 -20l-8 -19q-111 -14 -467 -88q-25 0 -76 -4q10 -12 29 -41q14 -16 55 -49q10 -8 31 -35q8 -2 12 -12l6 -2 q88 -88 170 -187q10 -14 23 -22l2 -15q2 0 2 2l2 -4q4 -6 0 -20q-14 -14 -29 -14q-12 0 -33.5 12t-29.5 14q-123 76 -377 178q12 -51 41 -125q-4 -16 2 -47q10 -39 10 -49q0 -31 14 -104q-2 -10 7.5 -32t9.5 -30q0 -20 -29 -35q-37 23 -82 82q-10 18 -78 121q2 6 -7 15.5 t-9 11.5q-33 53 -74 104q-6 -16 -26 -47q-4 -16 -13 -18l-170 -322l-12 -2q-8 -16 -22 -16q-4 0 -11 2q-8 33 -30 88q-10 37 -7 100q0 25 -2 54q2 47 -2 139l-4 -2l-180 -66q-102 -31 -158 -65q-4 2 -6 0q-8 -8 -14 -9q-104 -53 -176 -112q-4 -8 -13 -10h-2l-6 -2 q-31 0 -37 26q0 12 9.5 24.5t11.5 14.5q68 80 201 254q6 2 8 4l4 8q6 6 6 11q35 35 86 110q-80 31 -201 62l-202 47q-63 16 -129 12q-17 15 -17 27zM213 371q31 -10 94 -25q14 0 41 -12q12 0 41 -7.5t43 -7.5q55 -14 160 -51q29 -2 47 25q4 -8 12 -21l6 -2q10 -2 29 -22 q-6 -31 -35 -74l-209 -256q39 16 113 53q10 0 31.5 13.5t38.5 11.5q27 12 80 27q57 23 155 83q8 14 27 15q8 0 22 -4q8 0 19 2q6 -25 6 -51q-2 -43 0 -52q-10 -18 -4 -47q4 -33 0 -47q0 -49 8 -147q4 -4 4 -11l2 -4q37 57 103 179q25 68 86 194l18 2l-2 2q10 0 14 -2l11 10 q18 -10 22 -30q49 -72 143 -224q12 -16 29 -28q-2 8 -2 37q-2 16 -8 42.5t-6 37.5q-10 29 -23 83q-20 41 -55 125q2 12 24 29q18 14 37 -4l353 -154q-45 49 -141.5 140.5t-141.5 140.5q-10 8 -10 20q0 18 18 31q20 12 41 -4q68 -6 225 27q53 10 191 39q-104 29 -178 57 q-63 23 -269 82q-29 8 -32 45l211 233q8 18 32 52l-186 -60q-6 -12 -23 -14q-23 -6 -26 -8q-16 0 -46 -9.5t-46 -9.5q-10 0 -23 2l-14 31q10 43 10 90q0 72 -29 182l-67 172q-8 -8 -10.5 -18t-17.5 -26.5t-15 -24.5q-6 -10 -17 -19q-25 -45 -71 -141q-12 -14 -29 -59 q-14 -37 -47 -54l-186 183q-111 106 -205 161q14 -29 35 -88q0 -8 9 -26.5t9 -28.5q8 -27 33 -74q16 -53 51 -112q12 -23 25 -66q55 -82 47 -149q-133 18 -340 67q-8 10 -15 6h-6q-12 0 -22 7q-37 8 -113 18q16 -14 66 -47q31 -23 81 -74q49 -39 134 -121q23 -23 69 -59 q-2 -10 0 -14l2 -4q4 -8 4 -17q0 -12 -8 -22q-35 -8 -125 -35q-106 -33 -309 -90z" />
<glyph unicode="&#x2db;" horiz-adv-x="1722" d="M53 -68q23 -16 53 -51q2 -2 5 -6l2 -2q12 6 22 2q16 -10 61.5 -19.5t61.5 -5.5q109 29 244 164q25 33 61 103q2 6 15 39q25 63 24 159q0 53 -8 138l-12 129q-4 63 2 131q4 18 26 63q4 12 17 33l10 14q8 8 8 13q72 115 170 151q20 14 49 19q2 2 6 2l2 2q-4 6 -4 10 q0 10 19 12q23 -6 67.5 -4t65.5 -2q96 -8 268 -18q35 -2 283 -21q14 0 37 -4h4q2 -2 14 -2v-2l23 -2l30 -6q10 -2 17 -6q18 -2 45 -23v-12q-2 -18 -21 -19q-8 4 -45 -6q-16 -8 -24 -10q-10 -10 -27 -18q-78 -74 -102 -123q-4 -8 -6 -11q41 4 104 21q80 20 104 24q4 8 11 29 q6 35 -11 82q2 16 25 21q29 -37 25 -103q-4 -16 -2 -39q4 -6 4 -12q0 -12 -19 -21q-33 0 -123 -18q-47 -10 -135 -25q-35 -127 -35 -186q0 -41 9 -80v-24q12 -49 16 -84q4 -8 4 -13l2 -6q6 -10 25 -53l-15 16q12 -45 19 -98q4 -14 12 -39q2 -14 8 -41q6 -55 6 -98v-80l-2 -4 q0 -66 -22 -133q-14 -25 -45 -72q-23 -27 -47 -35q-10 -6 -63.5 -21.5t-162.5 -31.5q-4 -2 -16 -2h-4v2q-4 -4 -14 0q-2 2 -5 2q-4 4 -4 8l4 -8q41 29 66 35q51 12 104 22q61 18 97 43q61 72 73 177q6 57 -6 196q-18 72 -30 144q-2 2 -3 6l-2 8q0 8 -4 12q-18 72 -39 217 q-6 127 23 197l2 8l2 8h-4q-14 0 -23 2l-2 -2q-23 -4 -32 8q0 25 18 25h-2l57 8q31 70 109 154q23 23 72 49l-29 6q-31 0 -47 6q-14 0 -47 4h-17l-8 2h-24q-4 2 -27 0v13h-2q-4 -2 -8 0q-6 -2 -11 -2h-8h-2l2 -2h-8q-12 -4 -18 0h-48l5 2q-6 2 -17 4l-12 -13v13l-16 -6v6 h-64l8 4h-2h-69q-10 0 -15 2l-14 4v-2q-8 -2 -19 0q-20 4 -63 4l-8 4h-2q-2 -2 -4 -2q-10 0 -29 2h-29q0 -14 -14 -16q-16 0 -21 16q-20 -2 -58 -13t-69 -22q-18 -10 -55 -37q-43 -31 -78 -75q-63 -82 -73 -148q0 -10 -4 -30q0 -29 10 -148q8 -106 10 -118.5t2 -57.5 q0 -43 -4 -117q-6 -35 -16 -71q-37 -131 -181 -246q-10 -8 -36.5 -22.5t-69.5 -45.5q4 -2 156 -16l170 -17q10 0 30 -2q12 -2 22.5 -3t26.5 -3h25q27 -2 92 -12h14q4 0 15 -2l28 -6q49 -4 146 -23q66 -4 88 -6q49 -6 84 -20l12 -23q-23 -10 -37 -6l-8 4q-2 0 -6 2 q-78 4 -227 25q-4 2 -6 2h-7q-39 0 -82 14v4h-51q-8 0 -24.5 3t-24.5 3h-10q4 0 -12 2l-11 6v-2l2 -2l-4 2q-4 -4 -8 -4t-8 6h-23h-18q-6 2 -10 2q-8 -2 -25 0q-20 4 -27 5q-33 0 -100 10h-49q-8 2 -27 4q-27 0 -82 10q-20 0 -26 4q-12 0 -39 4t-39 4q-27 -6 -84 5 q-86 13 -119 122zM92 -123q2 2 4 2t2 2h2h-2q-2 -2 -4 -2zM305 -178h31q-4 2 -12 8l-7 -2q-2 0 -6 -4q4 0 -6 -2zM498 -166q-4 33 30 88q4 8 13 8l4 -2l6 -4q8 4 14 4q29 0 25 -37l4 5q6 2 16 8q2 4 11 8l4 4h4q0 2 2 2l8 2q6 4 12 4q10 0 17 -12q12 -4 8 -16v-2q6 4 10 8 q35 27 51 26l13 -12q-2 0 -2 2h2q6 -4 6 -12q0 -12 -11 -33q14 12 43 41q18 0 25 -16h-2l6 -7q0 4 -8 -38h2q16 0 25 -7q8 -25 -17 -30q-16 -6 -28 -4l-9 10v-4l-2 2q-10 4 -12 20q-10 -10 -27 -20q-10 0 -16 2q2 0 2 2l-12 2q-14 16 -13 39q-20 -14 -53 -31q-6 4 -24 21 q0 4 4 16l-72 -53h-12l-10 6q2 -2 2 -4l-2 2q-12 4 -13 18q-8 -8 -18 -16zM537 -127h2v4zM596 0q6 12 13 22.5t24 12.5q8 -8 10 -17q20 10 59 25q16 4 27 -12q2 -6 2 -15q0 -12 -6 -26l39 20q16 2 32.5 -4t10.5 -22q6 2 14 10q23 16 74 37q10 0 16 -8q8 -18 7 -35 q31 20 94 53q29 4 39 0q10 -16 8 -31l-4 -28q4 2 28 10q45 16 58 16q20 -25 20 -37h4q0 2 2 2q27 10 90 25l9 -8q8 -8 10 -19l-10 -22q-12 6 -27 6q-10 0 -19.5 -3t-31 -12.5t-33.5 -9.5q-14 0 -29 9q-6 6 -6 26q-57 -23 -63 -22q-41 0 -41 34q0 10 4 23q-31 -18 -94 -51 q-18 -2 -43 4q-12 14 -9 29l-45 -33q-31 -18 -45 -12q-25 6 -22 28v2l-51 -30q-4 -2 -19 -3l-16 5q-4 12 -4 22q0 14 6 25l2 6q-29 -10 -51 -25h-17l-8 10v-2h-2q-12 7 -6 25zM643 -213l6 2zM647 104q6 33 25 46q8 -4 12 -9l4 4q2 0 4 2h2q6 8 23 9q18 -4 24 -27 q14 12 41 12q10 0 43 -4l6 -6q6 -2 7 -8q10 -23 -17 -23h-45q-4 0 -19.5 -8t-25.5 -8q-16 0 -26 18q0 2 -3 4l-10 -6q-10 -8 -18 -12l-12 6v-2h-3q-6 2 -12 12zM657 186q0 18 17 13h10v-25h-16q-11 0 -11 12zM670 242q-6 23 22 28q4 -4 10 -12q18 18 37 16q27 -12 19 -45 q51 37 69 37q14 0 21 -16q4 0 4 -8v-4l6 4q10 10 25 12q8 4 16 4t14 -6l7 -8q18 4 38 -6q4 -23 -8 -27l-22 -10q-10 -2 -31 4l-6 8v2q-12 -4 -41 -25q-14 -4 -19 5h-2l-6 2q-12 8 -8 22h-2q-8 -2 -30.5 -20.5t-37.5 -18.5q-8 0 -20 4q-10 16 -6 35q-4 -6 -25 -24 q-2 4 -14 14l-8 8q0 21 -2 25zM678 690q0 20 31 60q6 2 12 2q10 0 12 -11q8 8 21 17q4 2 10 2q14 0 22 -23q2 -8 0 -18l5 4q33 27 47 25t18 -17l4 -6v-16q18 14 58 39q20 6 36 -23q2 -10 -2 -23v-2l4 5q10 4 27 12q10 6 16 6q25 0 25 -29v-2q37 23 53 23q33 0 41 -31 q-6 -23 -24 -16q-6 2 -21 6q-16 -10 -57 -27q-12 0 -29 17q-2 4 -2 12q-6 -4 -8 -4q-31 -16 -47 -17q-6 0 -10 2q-10 8 -11 37l2 6q-27 -23 -53 -38q-6 -4 -35 0q-10 18 -6 32l-6 -4q-6 -6 -10 -8q-8 -10 -37 -25l-8 7v-2h-15q-2 23 0 34q-4 -4 -14 -12l-6 -2h2 q-14 -14 -27 -10l-2 4v-2q-6 2 -16 16zM680 506q-4 16 6 51q8 10 21 10q10 -6 12 -12l2 4q51 31 67 29q18 -14 17 -37q33 35 78 35q16 -16 16 -33q23 16 49 25q23 -10 19 -41q25 18 104 43q18 -12 19 -35v-8q-2 -6 -3 -11h3q2 2 6 2q18 10 57 27q6 6 21 6h6q18 -6 18 -29 l-2 -4q12 4 47 25q4 0 8 2l4 2q2 2 7 2q18 10 38 8q8 -2 15 -12v-4l2 -2q47 4 61 -4q-2 -25 -39 -33q-33 -8 -49 8q-2 4 -6 8q-29 -18 -96 -39l-4 3h-2q-25 -4 -25 24q-12 -6 -39 -16q-14 -12 -28 -13q-12 0 -27.5 10.5t-11.5 39.5l-4 -2q-74 -37 -89 -37q-29 0 -30 28 q-33 -20 -41 -20q-12 0 -27 10q-2 18 0 27l-8 -6q-10 -8 -12 -9q-12 -10 -37 -28q-4 0 -4 -2l-4 -2q-4 -4 -15 -4l-10 6v-2l-2 2q-16 6 -12 20q4 10 8 25q-4 -2 -34 -21.5t-34 -19.5l-10 -25v29h-6zM686 506h6l-2 4l-4 4v-8zM692 506l4 -4q0 4 -4 4zM700 362q0 12 13 60l8 4 q4 2 12 2q12 -8 12 -22q39 35 64 32q8 -8 16 -55q-2 -6 -2 -12l2 -6l2 2q10 2 9 2q18 20 59 55q20 6 27 -12l2 -2v-4q2 -8 2 -27q12 12 39 33q31 0 30 -41v-4q20 16 74 39q6 -6 14 -17v-2q4 -10 4 -16v-2q16 10 48 24h10q18 -4 24 -31q27 12 78 39h27q4 -4 10 -18h4l8 2 q20 0 31 -10q2 -6 8 -35q-16 6 -45 0q-23 -2 -33 12q-4 4 -4 8q-6 -2 -49 -24q-29 -14 -53 -12q-10 2 -14 12l-2 4q-2 2 -2 8h-3q-14 -10 -53 -24q-12 2 -28 20v8q-18 -12 -62 -28q-12 4 -31 22q-2 2 -2 8l-6 -6q-29 -14 -49 -14q-14 14 -14 35q-14 -18 -56 -47 q-31 -4 -38 16q-4 10 -5 53q-14 -10 -34 -37q-6 -8 -25 -16l-10 6v-2h-2q-15 0 -15 20zM729 741h2h-2zM760 831q4 27 35 89q14 6 24 2l8 -15l-6 -12q12 10 27 20q20 -12 20 -36l-4 -7q8 6 21 19l37 27q18 6 30 -21l-10 -29q31 27 51 47q20 8 29 9q12 -6 16 -33 q-2 -10 -14 -31v-6l2 4q6 6 10 6q16 16 49 45h7q6 10 24 9q10 -14 10 -27q0 -4 -14 -35q4 2 14 10l41 29q23 8 29 -12q6 -16 -4 -39v-4q8 6 22 14q27 25 54 33q14 4 26 -17v-20l-2 -2q27 18 90 43q14 -6 20.5 -25.5t10.5 -17.5q23 6 41 4q8 -35 -16 -37q-14 -4 -31 -8 q-39 -4 -39 39l-76 -41q-41 0 -41 31q-23 -18 -75 -45q-8 2 -25 14q-2 6 -2 14t2 19q-4 -2 -49 -37q-14 -2 -21 0l-4 2q-4 2 -10 4q-6 16 -2 37l-35 -35q-18 -14 -31 -8l-4 2q-16 23 -10 55q-23 -25 -67 -51q-27 6 -23 31l2 10l2 4l-4 -2q-12 -12 -49 -37q-29 8 -27 29 l-28 -29l-17 2q2 0 2 -2h-2q-16 4 -14 18zM780 549l6 -6q0 4 -6 6zM805 545l2 6l-2 -2v-4zM825 360q0 -6 2 2zM827 842l7 16q-2 0 -5 -4l-2 -2v-10zM883 76l10 65l4 9q6 6 12 6q4 0 10.5 -4.5t10.5 -18.5l8 8q23 18 49 15q8 -10 14 -33q8 6 25 16l21 15q31 14 30 -35l-2 -4 q23 14 39 14q10 0 16.5 -4t12.5 -10t6 -13q0 -12 -16 -16q-20 2 -27 0q-37 -25 -55 -20q-16 14 -17 32q-25 -20 -39 -26h-16l-14 6q-2 14 -9 31l-2 -3q-14 -12 -51 -38q-6 8 -20 8zM909 -172q-2 29 27 61q12 2 16 -2l2 2q4 4 15 17q6 2 12 2q8 0 14 -8l2 -4h-2l6 -11 q0 -14 7 -37q10 4 47 35q4 4 26 19q23 -14 27 -54v-4q2 2 47 35q20 0 25.5 -20.5t9.5 -40.5v-4l4 -4q23 0 51 38l12 17q16 23 27 22q6 0 16 -2q6 -14 15 -41q20 -4 57 -22l-2 -29q-20 6 -49 6q-37 4 -45 27l-8 -10q-25 -31 -64 -45q-25 0 -35 6q-16 12 -24 45 q-27 -20 -41 -21q-29 0 -37 37v4q-25 -27 -59 -37q-29 2 -41 35v2h-2l-23 -26q-6 -4 -12 -4q-8 0 -15 6v2q2 0 5 -2zM993 864l4 6l-2 -2l-2 -2v-2zM1251 975l9 4h-9v-4zM1319 971h2h-2zM1321 971h2h-2zM1321 975l2 -4l2 2l-2 2h-2zM1321 977zM1325 973l2 -2h4l2 2h-4h-4z M1337 -260q-23 29 9 43q8 -2 19 -4t13 -19q0 -14 -12 -16l-2 -2v2l-4 -6q-15 -8 -23 2zM1348 967l2 2h-2v-2zM1350 975q4 0 8 -2l2 2l-2 4l-2 -4h-6zM1405 991l10 -4h-2h4h-2h15z" />
<glyph unicode="&#x2dc;" horiz-adv-x="2004" d="M25 -61q-4 18 5 44.5t9 39.5q23 47 258 430l119 200q27 33 64.5 104.5t62.5 102.5q-2 14 6 25l16 20q0 14 -2 21q16 4 23 18l4 10q12 33 47 25q31 -12 27 -80q-2 -12 -11 -22l4 2q10 29 50 59v-2q12 27 50 61.5t50 55.5q29 33 201 176q27 6 39 -21q6 -14 8 -18 q-12 -59 -51 -121q-35 -51 -72 -113q-8 -6 -51 -73q-4 -8 -25 -35q-8 0 -12 -12.5t-8 -16.5q-66 -82 -97 -147q-20 -25 -55 -80h-8l-148 -217q-88 -127 -280 -514q-10 -18 -45 -111q29 35 69 100q47 76 68 103l25 51q66 92 114 174q16 20 35 66q27 29 61 92q29 37 74 104 q31 33 78 107q33 41 102 117q16 18 41 53q86 98 236 219q16 -4 29 -23v-4l2 -2l14 -6q-35 -78 -172 -268q-10 -14 -39 -43q-14 -31 -92 -117q0 -14 -23 -33v-6q-55 -61 -139 -184q-74 -109 -225 -359l-64 -106q-18 -39 -43 -117q18 10 76 101q23 39 64 95t100 159 q2 12 25.5 42.5t25.5 53.5q27 16 66 92q6 12 26 31q12 35 52 92t55 84q4 10 20 20l6 4q10 4 11 15l4 2q-4 12 12 29.5t16 21.5q66 84 205 242l86 82q4 2 19.5 11t25.5 9q39 0 39 -45q0 -18 -10 -39l-145 -225q-8 -10 -29 -31q-6 -18 -53 -65v-11l-11 -10h2q0 -8 -16 -22 q-8 -18 -37 -52q-8 -10 -100 -143q-10 -12 -68 -109q0 -12 -12 -22l-10 -10q-12 -16 -76 -136q-78 -139 -133 -256q-6 -18 -27 -55q2 -18 -12 -51q-4 -31 0 -45q4 0 10 10q25 20 35 35l63 88l82 137q6 18 37 49q33 70 58 101l3 18q3 18 19 23l55 90l7 12l6 14l18 29l125 195 q23 37 154 198q49 61 127 140q25 14 41 -11l4 -6q4 -8 18 -10q-2 -20 -17.5 -51t-15.5 -45q-6 -6 -86 -146l-65 -108l-205 -336q0 -2 -18 -43q-143 -309 -134 -342q16 12 35 47q25 43 33 51q20 37 57 115q8 2 13 22q4 8 8 13q49 92 153 254l91 143q29 33 77 102q8 2 21 23 l6 10q6 14 23 25q20 33 84 90q20 -4 34 -35q2 -4 11 -10q-14 -78 -78 -191q0 -12 -8 -22l-7 -8q-4 0 -4 -4q-8 -27 -41 -68q-37 -49 -47 -70q-33 -63 -49 -82q-12 -31 -100 -180q0 -6 -2 -12l8 12q53 109 92 162q8 4 39 55l145 189q41 41 58 39q6 -2 18 -25q2 -8 19 -8 q2 -92 -43 -197q4 -10 -2 -18q-4 -29 -43 -99q-12 -20 -21 -47l-4 -12h-4v-25h-19l-4 -8q-29 -61 -39 -104q-4 -12 -16 -70q-12 -49 -12 -71q0 -18 4 -31l2 2q2 0 6 4l176 254l129 197l10 4h-2l4 2q4 4 11 4q4 0 10 -2q8 -16 35 -41q-12 -45 -31 -137q-4 0 -10 -3l-2 -6 q0 -12 -8 -18q0 -16 -13 -33h11q-10 -10 -27 -45q-6 -8 -17 -18v-13q-8 -4 -12 -18t-7 -17.5t-7 -25t-19 -23.5v-10q20 12 80 117l-28 -62l4 5q106 150 243 196q4 6 23 12h4l6 7q37 16 115 36q4 8 18 9h4l-2 -2l17 2q14 23 22 22q6 0 13 -6q8 4 32 4q-20 -47 -59 -51 l-111 -51q-66 -31 -102 -66q-96 -61 -129 -114q-12 -4 -18 -15l8 -8q-18 -12 -72 -78q-43 -49 -96 -41q-27 4 -37 31q-2 4 -10 51q6 33 22 82l-22 -37q-8 0 -11.5 -10t-3.5 -12q-78 -121 -139 -144q-33 -6 -59 19q2 10 -7.5 20t-9.5 12q-2 18 -2 39q0 57 41 199q31 47 41 96 q6 6 8 13l2 10q2 4 4 10q53 115 93 244l-179 -234q0 -6 -4 -10l-6 -12q-4 -6 -4 -25q-14 -2 -14 -24q0 -8 -21.5 -40t-23.5 -57q-16 0 -21 -18q-4 -8 -8 -14q-29 -66 -100 -193q-8 -10 -16.5 -22.5t-22.5 -10.5q-25 -6 -37 6q-27 25 -12 56q4 18 18 55q25 47 64 145 q6 4 6 11l2 6q0 18 14 22q4 10 23 43q18 25 30 115v-29q-2 -14 -2 -16l4 4l111 193q-2 10 9 25l11 16q18 37 60 104q0 12 13 31.5t11 32.5l2 4q-236 -289 -438 -707q-20 -55 -67 -74q-33 -12 -56 33q-6 14 -6 27q0 16 9.5 46t11.5 40l69 155q25 57 98.5 206t159.5 294l56 98 q8 2 12 15.5t8 17.5q8 18 33 53q2 8 20 43l2 5q-31 -29 -73 -82q-90 -109 -148 -197q0 -4 -12 -20l-8 -9q0 -8 -19 -26l-4 -4l-4 -7q-2 -2 -2 -4q-55 -80 -104 -170l-168 -286q-6 -10 -23 -43l-69 -109q-43 -61 -84 -96q-12 -8 -25 -8q-10 0 -20 6q-27 6 -39 39l8 63 q6 41 22 56q4 39 29 83l43 80q2 10 133 238q59 106 115 188q41 63 123 172q2 10 14 27l4 4q6 6 6 16q27 25 54.5 73t42.5 65q33 49 94 149q10 10 18 25q-45 -39 -203 -213l-114 -146q0 -14 -19 -32l-4 -5q-8 -8 -10 -18q-45 -66 -76 -123q-14 -23 -65 -90q-27 -66 -64 -106 q0 -14 -10 -25l-4 -4q-4 -4 -4 -12q-41 -47 -47 -76q-35 -39 -84 -119q-53 -92 -78 -125q0 -4 -17 -24l-6 -5q-4 -6 -8 -14q-16 -14 -33 -14q-8 0 -14 2l-8 6v-2q-4 2 -8 2q-25 4 -19 27q-6 37 17 86l36 79l138 226q51 86 159 252q27 43 228 315q14 25 88 125q4 16 18 20 q4 10 13 29l-37 -37q33 41 41 47q0 -2 -4 -10l16 17l-4 2q-43 -39 -123 -123q-16 -18 -43 -58q-16 -12 -45 -51q-25 -20 -58.5 -70.5t-54.5 -68.5q-6 -14 -45 -57q-10 -31 -37 -62q-2 -4 -63 -100l-115 -183q-80 -135 -115 -188q0 -6 -8 -22l-4 -5q-4 -2 -4 -6q0 -6 6 -12 l-55 -84q-31 -45 -82 -45q-14 6 -33 37q61 217 260 541l156 249h-2q25 43 92 150l193 280q20 33 79 138q23 27 33 49q-78 -61 -284 -295q-2 -2 -9 -10l-10 -15q-10 -14 -27 -30q-4 0 -6 -4l-2 -3l-2 -4q-4 -4 -12 -10q2 -16 -12 -29q-16 -18 -19 -22q-2 -18 -28 -35 q-12 -8 -9 -22l-20 -21v-2q0 -16 -14 -25v-4q-2 -6 -21 -20l-2 2q-4 -2 -8 -6q-2 -14 -19 -55q-12 6 -20 -11q4 -2 8 -8q-2 -4 -8 -12q-4 0 -4 -4h-21v-17q2 -16 2 -32l9 -11h-9l2 -6l-6 6h-2q-6 0 -12 2v-12h-4q0 -4 -4 -4l-2 -4v4l-15 -8v-6q-2 -4 -2 -7v3 q-37 -35 -24 -78h-15q0 -8 -8 -21q-43 -70 -78 -137q-12 -25 -63 -96q-35 -80 -92 -125l-21 4l-8 4q-4 0 -6 2q-16 7 -16 21zM131 82l2 2q33 47 80 139q-8 -12 -20.5 -28.5t-14.5 -30.5l-6 -4q-14 -25 -41 -78zM221 236l10 22h-4l2 -4h-2l-2 -2zM342 432l12 17l2 6l-4 -6z M403 522q4 4 9 6v13q-5 -9 -9 -19zM418 487l4 -4v6zM436 535l8 6h-2v2v2l-6 8v-18zM436 575l2 -2q2 4 2 9zM528 713l7 6q0 4 2 8zM575 791q33 39 39 49q6 2 15 12l4 6q0 2 2 4l-2 -2q-6 6 -8 6q-19 -26 -50 -75zM713 930l6 -6q-2 6 0 8q-2 -2 -6 -2z" />
<glyph unicode="&#x2dd;" horiz-adv-x="3821" d="M90 -14q4 0 14 2h13q104 -4 135 0h22h76q63 2 111 2h16q190 0 309 2h21q57 2 127 2h145l672 -2q63 -2 90 -12q4 -2 17 -5v-20q-70 -10 -220 -16l-43 -2q-49 -2 -206 -3h-37q-92 0 -168 3l-168 4q-147 2 -406 6q-18 0 -73.5 2t-75.5 2h-51q-6 2 -43 2l-5 4v-2h-83 q-55 0 -90 2t-17 2q-8 2 -61 2h-11q-8 2 -10 2v23zM1894 -39q12 20 29 31q2 2 14 8q10 6 25 -2l16 -23v-10l2 -6q2 -4 2 -14l-8 -8q-8 -12 -18 -15v-2q-8 -8 -27 -8q-27 0 -35 49zM1950 -119q6 18 26 31q2 2 15 8q10 6 24 -2l19 -22q-2 -8 -2 -13l2 -4q2 -4 2 -14l-6 -8 q-25 -25 -48 -25q-14 0 -20 6q-12 6 -12 21v22zM2015 -39q12 25 27 31l16 8q10 6 25 -2l16 -23q-2 -8 0 -10l2 -6q2 -12 2 -14l-8 -8q-8 -12 -18 -15v-2q-8 -8 -29 -8q-25 0 -33 49zM2144 -27q2 10 19.5 12.5t58.5 6.5q76 6 330 6h153h136q106 2 184 2h543q115 0 346 -6v-23 q-391 -10 -731 -20q-109 -4 -258 -6q-309 -6 -523 0q-35 0 -127 4q-55 2 -110 8v10q-2 -4 -4 -6h2h-6q-17 2 -13 12zM2163 -20l2 -3v3h-2z" />
<glyph unicode="&#x394;" horiz-adv-x="1748" d="M23 428q20 -6 26 -12q25 37 82 76q-14 14 -39 47q-2 2 -6 10l-4 4q-2 4 -8 14l6 4l-4 2q2 10 76 17q16 -2 45 6l-4 8q-4 4 -5 10q-18 47 -45 103l17 16q23 2 63 -2q31 0 37 2q0 6 -4 15l-29 106l6 12h-2v2q10 10 17 11q12 -2 63 -17q39 -10 66 -10l16 51q0 8 4 25.5 t4 27.5l7 11q-2 10 -2 8q-4 25 24 24q12 -8 39 -22q23 -20 72 -57v4q14 41 30 57l7 6v-6l8 14q12 0 22 -10l6 -6q2 0 7 -4l18 -19q10 -10 31 -34l47 73q29 35 47 33q16 -8 39.5 -41t36.5 -39l30 25q35 35 50 33q23 -14 28 -39l4 -9l9 -16l8 -18l6 -13q2 0 4 -2q27 37 59 68 q2 8 11 12h2q12 10 30 35q20 0 27 -10l4 -6l41 -105l10 10q8 10 23 21q41 37 74 51l12 -4h2q0 -2 2 -2v-2q10 -8 8 -21v-22q-2 -8 -6 -27q0 -8 -5 -24.5t-5 -23.5t-4 -13q16 12 57 35q10 10 31.5 14t27.5 8q35 0 39 -6t4 -47l-4 -4v-2q0 -6 -4 -10q-4 -12 -16 -37 q-2 -10 -10 -31l8 4q8 4 24 8q29 12 92 13q8 0 15 -9l2 -4q2 -6 2 -12q0 -12 -6 -21q-27 -31 -78 -98q47 -10 82 -26q18 0 63 -17q10 -4 15 -26q-6 -8 -41 -17q-18 -10 -60 -22q6 -6 23 -15q4 0 26 -12l11 -8q14 -8 39 -29q23 -12 28 -16q10 -10 15 -31q-31 -10 -39 -10 q-29 -4 -86 -19q4 -6 4 -8l55 -82q0 -18 -14 -26l-154 -7q-2 0 -6 -2h-4q8 -31 27 -90q0 -10 8 -18l4 -6q10 -16 10 -29q-10 -16 -24 -12q-10 2 -21 6l-41 12l18 -121q2 8 5 -20q0 -14 -17 -19q-25 2 -57 19q-41 20 -53 24q-2 -12 -4 -36q-2 -25 0 -39q-4 -10 -5 -29 q-8 -10 -16 -10q-6 0 -14 4q-43 25 -62 51l-16 8q0 -55 -12 -125l-2 -2v2l-15 -6q-8 8 -31 25q-18 29 -63 80q-10 -27 -39 -80q-8 -4 -14 -4q-10 0 -17 12v2q-2 2 -2 4v-2l-6 8q-4 8 -10 25l-2 4q-16 -37 -27 -57q-8 -6 -16 -7q-8 0 -17 9l-8 8l-8 12v-2l-4 4q-4 4 -29 47 q-6 -8 -14 -25.5t-14 -25.5l-2 -4q-6 -12 -19 -12q-6 0 -14 4q-14 18 -43 92q-25 -27 -84 -78q-33 18 -45 94v6q-6 -6 -15 -6q-14 -14 -96 -55q-2 0 -6 -2l-6 -2q-6 -2 -10 -2q-23 0 -27 27q0 8 4 24l4 25q8 53 8 37q-106 -25 -157 -25l-6 12l-2 6l-9 7q6 16 23 51l18 30v2 h-32q-25 0 -115 11q-8 20 -8 33q0 8 4 12q6 12 20 33q0 6 4 10l7 10q-14 2 -84 21q-10 2 -15 20h2l-4 10q4 16 27 49q10 18 24 33l2 4q-2 0 -2 2h-4l-8 4q0 4 -8 7q-33 14 -72 41q-4 -10 -20 -27q2 6 14 31q-6 6 -22 18zM102 420l25 -10q8 -6 18 -7q25 -16 33 -22 q16 -14 21 -33q-27 -31 -58 -78q31 0 95 -20q14 -25 10 -33t-39 -63q51 2 151 -17l4 -6q6 -14 3 -25q-12 -20 -35 -63l-2 -2q31 4 88 18q6 0 27.5 9.5t37.5 5.5q12 -6 17 -39q-4 -4 -4 -8v-2q0 -6 -5 -13q-6 -18 -14 -51h4l13 6q6 2 18 10q6 2 25 17q12 12 24 14 q10 12 41 27q8 2 29 -19q2 -25 8 -71q2 -2 2 -8l10 12l23 20q16 23 49 45q14 -2 22 -14q10 -27 33 -76q4 12 10 19q0 -4 7 16l6 10q-8 -8 -8 17q0 29 26 28q12 -8 31 -30q4 -8 -2 -15l6 -12l8 -10q6 -10 25 -35q18 33 28 61q12 12 31 11q16 -20 27 -45l2 2q6 12 16 34l2 5 q2 0 2 4l8 16q12 8 23 4q14 -14 38.5 -44t39.5 -44v21q0 14 4 40q-4 8 0 23v4q2 0 2 2l-10 12l12 7l2 2q2 6 12 6q18 -4 70 -47q6 -6 23 -19v41q-2 10 2 19l4 8v6q2 0 2 4q0 29 22 31q12 -2 35 -19l59 -24q-4 18 -10 49q2 12 -4 33.5t-7 28t-5 26.5q8 14 20 16h21l8 -4l-2 2 h2q10 0 14 -4q-4 0 8 -2l5 -2l-5 10l-24 80q0 6 -4 21q-4 10 0 22q23 10 82 10q8 6 24 3q20 4 56 4l-7 10q-18 25 -49 80q10 12 92 41h9q-18 18 -62.5 40.5t-60.5 37.5q-2 6 -2 10q0 8 8 16l6 8q16 2 41 13l14 6h-4q-8 6 -73 20q-25 4 -43 27q2 8 73 102l6 11h-2q0 -2 -2 -3 l-69 -24q-27 -10 -43 -2q-20 8 -13 37q2 10 9 32q4 10 14 27q0 10 6 19l2 2q0 2 6 22q-33 -6 -65 -33q-10 -4 -47 -39q-16 -14 -29 -4q-8 2 -18 29q2 6 2 12v11q16 66 16 88q-35 -29 -53 -56l-4 -4l-2 -4q-10 -14 -23 -14q-4 0 -10 4q-23 18 -58 115l-4 -5l-4 -2 q-6 -6 -71 -88q-10 -18 -33 -16q-35 31 -62 90q-2 2 -2 8q-16 -16 -53 -47q-41 -4 -78 51q0 4 -6 9l-10 10q0 2 -2 4l-21 -31q-12 -23 -47 -69q-10 -4 -30.5 4t-27.5 20t-32 33q0 2 -4 6q-6 -20 -33 -74q-18 0 -53 29q-23 18 -66 47l-2 2q-2 -23 -18 -90l-8 -43 q-12 -2 -29 -2q-45 0 -110 16l2 -6q2 -8 8 -26q0 -6 16 -50q0 -4 4 -20q6 -23 -43 -31l-63 -4q12 -12 12 -29q14 -23 33 -86q-37 -23 -111 -26l17 -17q6 -4 14 -16q18 -14 18 -35q-29 -18 -84 -59z" />
<glyph unicode="&#x2206;" horiz-adv-x="1748" d="M23 428q20 -6 26 -12q25 37 82 76q-14 14 -39 47q-2 2 -6 10l-4 4q-2 4 -8 14l6 4l-4 2q2 10 76 17q16 -2 45 6l-4 8q-4 4 -5 10q-18 47 -45 103l17 16q23 2 63 -2q31 0 37 2q0 6 -4 15l-29 106l6 12h-2v2q10 10 17 11q12 -2 63 -17q39 -10 66 -10l16 51q0 8 4 25.5 t4 27.5l7 11q-2 10 -2 8q-4 25 24 24q12 -8 39 -22q23 -20 72 -57v4q14 41 30 57l7 6v-6l8 14q12 0 22 -10l6 -6q2 0 7 -4l18 -19q10 -10 31 -34l47 73q29 35 47 33q16 -8 39.5 -41t36.5 -39l30 25q35 35 50 33q23 -14 28 -39l4 -9l9 -16l8 -18l6 -13q2 0 4 -2q27 37 59 68 q2 8 11 12h2q12 10 30 35q20 0 27 -10l4 -6l41 -105l10 10q8 10 23 21q41 37 74 51l12 -4h2q0 -2 2 -2v-2q10 -8 8 -21v-22q-2 -8 -6 -27q0 -8 -5 -24.5t-5 -23.5t-4 -13q16 12 57 35q10 10 31.5 14t27.5 8q35 0 39 -6t4 -47l-4 -4v-2q0 -6 -4 -10q-4 -12 -16 -37 q-2 -10 -10 -31l8 4q8 4 24 8q29 12 92 13q8 0 15 -9l2 -4q2 -6 2 -12q0 -12 -6 -21q-27 -31 -78 -98q47 -10 82 -26q18 0 63 -17q10 -4 15 -26q-6 -8 -41 -17q-18 -10 -60 -22q6 -6 23 -15q4 0 26 -12l11 -8q14 -8 39 -29q23 -12 28 -16q10 -10 15 -31q-31 -10 -39 -10 q-29 -4 -86 -19q4 -6 4 -8l55 -82q0 -18 -14 -26l-154 -7q-2 0 -6 -2h-4q8 -31 27 -90q0 -10 8 -18l4 -6q10 -16 10 -29q-10 -16 -24 -12q-10 2 -21 6l-41 12l18 -121q2 8 5 -20q0 -14 -17 -19q-25 2 -57 19q-41 20 -53 24q-2 -12 -4 -36q-2 -25 0 -39q-4 -10 -5 -29 q-8 -10 -16 -10q-6 0 -14 4q-43 25 -62 51l-16 8q0 -55 -12 -125l-2 -2v2l-15 -6q-8 8 -31 25q-18 29 -63 80q-10 -27 -39 -80q-8 -4 -14 -4q-10 0 -17 12v2q-2 2 -2 4v-2l-6 8q-4 8 -10 25l-2 4q-16 -37 -27 -57q-8 -6 -16 -7q-8 0 -17 9l-8 8l-8 12v-2l-4 4q-4 4 -29 47 q-6 -8 -14 -25.5t-14 -25.5l-2 -4q-6 -12 -19 -12q-6 0 -14 4q-14 18 -43 92q-25 -27 -84 -78q-33 18 -45 94v6q-6 -6 -15 -6q-14 -14 -96 -55q-2 0 -6 -2l-6 -2q-6 -2 -10 -2q-23 0 -27 27q0 8 4 24l4 25q8 53 8 37q-106 -25 -157 -25l-6 12l-2 6l-9 7q6 16 23 51l18 30v2 h-32q-25 0 -115 11q-8 20 -8 33q0 8 4 12q6 12 20 33q0 6 4 10l7 10q-14 2 -84 21q-10 2 -15 20h2l-4 10q4 16 27 49q10 18 24 33l2 4q-2 0 -2 2h-4l-8 4q0 4 -8 7q-33 14 -72 41q-4 -10 -20 -27q2 6 14 31q-6 6 -22 18zM102 420l25 -10q8 -6 18 -7q25 -16 33 -22 q16 -14 21 -33q-27 -31 -58 -78q31 0 95 -20q14 -25 10 -33t-39 -63q51 2 151 -17l4 -6q6 -14 3 -25q-12 -20 -35 -63l-2 -2q31 4 88 18q6 0 27.5 9.5t37.5 5.5q12 -6 17 -39q-4 -4 -4 -8v-2q0 -6 -5 -13q-6 -18 -14 -51h4l13 6q6 2 18 10q6 2 25 17q12 12 24 14 q10 12 41 27q8 2 29 -19q2 -25 8 -71q2 -2 2 -8l10 12l23 20q16 23 49 45q14 -2 22 -14q10 -27 33 -76q4 12 10 19q0 -4 7 16l6 10q-8 -8 -8 17q0 29 26 28q12 -8 31 -30q4 -8 -2 -15l6 -12l8 -10q6 -10 25 -35q18 33 28 61q12 12 31 11q16 -20 27 -45l2 2q6 12 16 34l2 5 q2 0 2 4l8 16q12 8 23 4q14 -14 38.5 -44t39.5 -44v21q0 14 4 40q-4 8 0 23v4q2 0 2 2l-10 12l12 7l2 2q2 6 12 6q18 -4 70 -47q6 -6 23 -19v41q-2 10 2 19l4 8v6q2 0 2 4q0 29 22 31q12 -2 35 -19l59 -24q-4 18 -10 49q2 12 -4 33.5t-7 28t-5 26.5q8 14 20 16h21l8 -4l-2 2 h2q10 0 14 -4q-4 0 8 -2l5 -2l-5 10l-24 80q0 6 -4 21q-4 10 0 22q23 10 82 10q8 6 24 3q20 4 56 4l-7 10q-18 25 -49 80q10 12 92 41h9q-18 18 -62.5 40.5t-60.5 37.5q-2 6 -2 10q0 8 8 16l6 8q16 2 41 13l14 6h-4q-8 6 -73 20q-25 4 -43 27q2 8 73 102l6 11h-2q0 -2 -2 -3 l-69 -24q-27 -10 -43 -2q-20 8 -13 37q2 10 9 32q4 10 14 27q0 10 6 19l2 2q0 2 6 22q-33 -6 -65 -33q-10 -4 -47 -39q-16 -14 -29 -4q-8 2 -18 29q2 6 2 12v11q16 66 16 88q-35 -29 -53 -56l-4 -4l-2 -4q-10 -14 -23 -14q-4 0 -10 4q-23 18 -58 115l-4 -5l-4 -2 q-6 -6 -71 -88q-10 -18 -33 -16q-35 31 -62 90q-2 2 -2 8q-16 -16 -53 -47q-41 -4 -78 51q0 4 -6 9l-10 10q0 2 -2 4l-21 -31q-12 -23 -47 -69q-10 -4 -30.5 4t-27.5 20t-32 33q0 2 -4 6q-6 -20 -33 -74q-18 0 -53 29q-23 18 -66 47l-2 2q-2 -23 -18 -90l-8 -43 q-12 -2 -29 -2q-45 0 -110 16l2 -6q2 -8 8 -26q0 -6 16 -50q0 -4 4 -20q6 -23 -43 -31l-63 -4q12 -12 12 -29q14 -23 33 -86q-37 -23 -111 -26l17 -17q6 -4 14 -16q18 -14 18 -35q-29 -18 -84 -59z" />
<glyph unicode="&#x3a9;" horiz-adv-x="655" d="M20 166q0 63 13 207q10 135 8 209q-8 51 51 71q6 -10 8 -10h6q10 -2 27 -18q31 -25 31 -66q0 -20 -8 -53l-13 -51q-2 -8 2 -82q2 -49 -20 -80q0 -27 -2 -133q-2 -84 18 -131q72 90 146 247l125 261q27 76 92 220t92 220q0 98 59 170v27h47q-12 -172 -86 -365 q-18 -47 -149 -342q-94 -211 -272 -578l-68 -24q-12 -4 -21 -4q-35 0 -43 82q-2 20 -20 28q-23 89 -23 195z" />
<glyph unicode="&#x2126;" horiz-adv-x="655" d="M20 166q0 63 13 207q10 135 8 209q-8 51 51 71q6 -10 8 -10h6q10 -2 27 -18q31 -25 31 -66q0 -20 -8 -53l-13 -51q-2 -8 2 -82q2 -49 -20 -80q0 -27 -2 -133q-2 -84 18 -131q72 90 146 247l125 261q27 76 92 220t92 220q0 98 59 170v27h47q-12 -172 -86 -365 q-18 -47 -149 -342q-94 -211 -272 -578l-68 -24q-12 -4 -21 -4q-35 0 -43 82q-2 20 -20 28q-23 89 -23 195z" />
<glyph unicode="&#x3c0;" horiz-adv-x="724" d="M-342 -676q0 145 61 289l129 295q-18 6 -18 33q0 14 2 22l2 8v13l105 86q29 51 102 213q59 129 106 209q57 0 76 -54q-16 -55 -67 -145q-57 -98 -74 -141q229 90 395 245v19q27 6 76 76q8 29 -39 59q-375 20 -481 -172q-4 -8 0 -23q6 -23 6 -28q0 -23 -31 -31 q-37 4 -53 43q-4 10 -14 72q100 242 546 241l91 -28q53 -23 59 -70q-2 -164 -172 -289q-66 -47 -150 -92l-155 -82q-43 -23 -127 -72q-68 -43 -80 -118q-10 0 -16 -23q0 -10 -7 -18q-8 -23 -86 -156q-53 -92 -67 -158q-23 -53 -35 -159q-10 -20 -13 -75.5t-20 -86.5 q-51 23 -51 55q0 6 2 17q2 0 4 2l-2 4q-6 12 -4 20z" />
<glyph unicode="&#x2000;" horiz-adv-x="976" />
<glyph unicode="&#x2001;" horiz-adv-x="1953" />
<glyph unicode="&#x2002;" horiz-adv-x="976" />
<glyph unicode="&#x2003;" horiz-adv-x="1953" />
<glyph unicode="&#x2004;" horiz-adv-x="651" />
<glyph unicode="&#x2005;" horiz-adv-x="487" />
<glyph unicode="&#x2006;" horiz-adv-x="325" />
<glyph unicode="&#x2007;" horiz-adv-x="325" />
<glyph unicode="&#x2008;" horiz-adv-x="243" />
<glyph unicode="&#x2009;" horiz-adv-x="389" />
<glyph unicode="&#x200a;" horiz-adv-x="108" />
<glyph unicode="&#x2010;" horiz-adv-x="677" d="M37 492q18 18 82 18q23 0 133 -6q102 -6 178 -4q31 0 86 -12.5t80 -12.5q29 -12 45 -61q-16 -51 -86 -47q-18 16 -45 20h-51q-16 6 -58.5 2t-66.5 10q-25 -2 -51 -2q-94 0 -162 21q-84 25 -84 74z" />
<glyph unicode="&#x2011;" horiz-adv-x="677" d="M37 492q18 18 82 18q23 0 133 -6q102 -6 178 -4q31 0 86 -12.5t80 -12.5q29 -12 45 -61q-16 -51 -86 -47q-18 16 -45 20h-51q-16 6 -58.5 2t-66.5 10q-25 -2 -51 -2q-94 0 -162 21q-84 25 -84 74z" />
<glyph unicode="&#x2012;" horiz-adv-x="677" d="M37 492q18 18 82 18q23 0 133 -6q102 -6 178 -4q31 0 86 -12.5t80 -12.5q29 -12 45 -61q-16 -51 -86 -47q-18 16 -45 20h-51q-16 6 -58.5 2t-66.5 10q-25 -2 -51 -2q-94 0 -162 21q-84 25 -84 74z" />
<glyph unicode="&#x2013;" horiz-adv-x="571" d="M8 8q12 39 49 43q55 6 64 8q88 23 276 23q63 0 158 -23l20 -20q0 -23 -14 -35q-307 6 -479 -35q-45 6 -74 39z" />
<glyph unicode="&#x2014;" horiz-adv-x="747" d="M25 494q14 39 49 43q55 6 63 8q164 43 484 43q63 0 116 -13l21 -22q0 -16 -15 -35q-100 2 -292 -14q-227 -18 -353 -49q-40 6 -73 39z" />
<glyph unicode="&#x2018;" horiz-adv-x="94" d="M25 1032q-4 27 0 62q2 27 6 58.5t20 88.5q0 4 8.5 24.5t18.5 34.5l37 -14q-12 -20 -12.5 -40.5t-4.5 -31.5q-4 -20 -6 -63q-4 -25 -12 -86q-4 -31 -14 -37h-3q-2 -2 -6 -2l-2 -2q-16 -2 -30 8z" />
<glyph unicode="&#x2019;" horiz-adv-x="94" d="M18 1221q-6 33 2 41l3 2q2 0 4 2l2 2q8 4 18 4q6 0 14 -2q12 -23 19 -58q6 -27 11 -58.5t9 -90.5v-29q-2 -18 -8 -37l-39 2q4 12 4 23q0 10 -4 18q-6 23 -6 33q-2 23 -14 64z" />
<glyph unicode="&#x201a;" horiz-adv-x="368" d="M4 -188q0 6 3 16t16 18l4 4q12 8 14 19q63 96 78 123q37 72 43 139q12 12 31 12q33 0 45 -32q-8 -10 -9 -19q0 -16 -12 -65q-45 -152 -174 -244q-6 6 -22.5 11.5t-16.5 17.5z" />
<glyph unicode="&#x201c;" horiz-adv-x="448" d="M25 1020q8 10 8 18q-2 16 12 66q43 152 174 244q6 -6 22.5 -11.5t16.5 -17.5q0 -6 -3 -16.5t-15 -18.5l-4 -4q-12 -8 -15 -18q-63 -96 -78 -123q-37 -72 -43 -140q-12 -12 -30 -12q-33 0 -45 33zM229 1020q8 10 9 18q-2 16 12 66q43 152 174 244q6 -6 22.5 -11.5 t16.5 -17.5q0 -6 -3 -16.5t-16 -18.5l-4 -4q-12 -8 -14 -18q-63 -96 -78 -123q-37 -72 -43 -140q-12 -12 -31 -12q-33 0 -45 33z" />
<glyph unicode="&#x201d;" horiz-adv-x="448" d="M63 1145q29 63 37 151q4 31 4 160q4 10 -2 27l-2 6q-2 8 -2 14t2 13q4 29 27 20q14 -8 23 -6q29 -94 28 -187q0 -74 -20 -145q-14 -51 -20.5 -62.5t-6.5 -25.5q-12 -8 -22 -8q-38 0 -46 43zM211 1188q41 55 65 141q10 31 35 156q4 10 2 26v7q-2 16 6 26q6 18 17 19 q6 0 12 -4q12 -10 21 -11q4 -37 4 -71q0 -137 -60 -256q-23 -47 -32 -56.5t-9 -23.5q-25 -12 -43 4t-18 43z" />
<glyph unicode="&#x201e;" horiz-adv-x="448" d="M4 -188q0 6 3 16t16 18l4 4q12 8 14 19q63 96 78 123q37 72 43 139q12 12 31 12q33 0 45 -32q-8 -10 -9 -19q2 -16 -12 -65q-43 -152 -174 -244q-6 6 -22.5 11.5t-16.5 17.5zM209 -188q0 6 3 16t15 18l4 4q12 8 15 19q63 96 78 123q37 72 43 139q12 12 30 12q33 0 45 -32 q-8 -10 -8 -19q2 -16 -12 -65q-43 -152 -174 -244q-6 6 -22.5 11.5t-16.5 17.5z" />
<glyph unicode="&#x2020;" horiz-adv-x="456" d="M-178 516q4 12 0 25q-6 18 14 30q47 -8 96 -8q131 0 240 55q16 43 111 236q72 147 100 240q8 27 35 26q37 0 63 -30q-4 -66 -41 -140q-51 -106 -59 -129q-66 -84 -94 -184h2l151 4v-41q-70 -14 -207 -63q-43 -57 -88 -168l-71 -174q-33 -96 -47 -179q8 -4 16 -4t14 4 q31 8 70 43q47 41 63 52q10 29 48 39l8 -23q-12 -4 -13 -29q0 -31 -14 -43l-88 -80q-59 -49 -100 -49q-70 0 -84 66q-12 59 -17 65q18 92 78 224q76 170 92 219q-68 -12 -125 -13q-85 0 -153 29z" />
<glyph unicode="&#x2021;" horiz-adv-x="552" d="M80 197q0 29 22 28q20 -4 39 -49q4 -8 13 -33q14 63 41 136q0 6 4 14l2 4q4 6 2 12q16 25 16 35q12 27 43 78q0 8 4 12l4 4q8 14 22 34l54 77q0 10 10 16h2q4 10 7 13l2 2q10 10 69 86q6 -2 8 4q31 31 95 82q16 8 34 24l19 -16q-31 -29 -88 -90l-88 -92q0 -10 -10 -15 l-5 -2l-8 -14q-12 -23 -24 -39l-7 -2q0 -8 -6 -14l-4 -5l-30 -51q-8 -16 -33 -59v-2l-8 -17l-9 7l-18 -31q0 -10 -10.5 -30.5t-9 -31t-5.5 -20.5l-4 -4q-4 -8 -4 -23l-4 -6q0 -2 -2 2h-2l10 -12q0 -6 -6 -18.5t-2 -22.5l-4 -4q0 6 -6 -25l4 -18h-6q-6 -88 -4 -96v-2l2 -7 q2 -4 2 -8q0 -25 -23 -24q-8 0 -20 4q0 10 -6 16l-4 6q-4 4 -9 17q-18 61 -61 170z" />
<glyph unicode="&#x2022;" horiz-adv-x="542" d="M104 582q0 53 78 172q90 23 133 22q80 0 123 -53l-28 -154q-25 -88 -84 -125q-106 0 -121 5q-68 12 -84 71q-17 31 -17 62z" />
<glyph unicode="&#x2026;" horiz-adv-x="606" d="M68 92q16 20 92 21q-8 -41 -8 -43q-8 -27 -23 -35q-31 -25 -59 -4q-33 22 -2 61zM195 123q39 -18 47 -19q18 4 34 11q18 2 31 -19q4 -14 -12 -59q-2 -4 2 -27q-23 8 -33 8q-43 0 -53 23q-4 10 0 29l4 6q3 8 -20 47zM369 61q0 16 24 54q29 6 41 6q27 0 39 -17l-8 -47 q-8 -29 -27 -39h-37q-23 4 -26 23q-6 10 -6 20z" />
<glyph unicode="&#x202f;" horiz-adv-x="389" />
<glyph unicode="&#x2030;" horiz-adv-x="788" d="M78 918q16 27 43 45q55 39 96 51q14 4 23 -13q0 -18 -15 -18q-2 0 -9 -3t-11 -3q-45 -25 -66 -39q-8 -10 -30 -27h-7l-4 -4q4 2 6 0q-14 -5 -26 11zM109 1194q0 8 4 12h2q0 2 2 4q16 6 39 7q23 0 55 -7l-8 -2l16 -4l-4 4h2q10 -2 14 -6l11 -4q14 -4 37 -27q6 -27 -13 -26 q-6 0 -10 2q-8 16 -33 27l-10 2l-4 2q2 0 2 2h-2l-2 -2q-31 8 -66 8q-10 -2 -28 -8q-4 10 -4 16zM213 766q0 18 27 59l26 41l6 6l4 9q4 6 17 16q20 6 24 -18l-67 -95q-2 -4 -8 -10l-2 -4q-10 -6 -7 -6q-2 -2 -6 -2q-6 0 -14 4zM299 1112l2 6q0 2 8 21q12 31 46 57.5t67 26.5 h12q12 14 43 14l8 -4h7q12 -4 22 -4q12 -6 31 -19q51 -35 82 -116q4 -49 -2 -84q0 -4 -2 -9q-4 -16 -25 -49q-6 -2 -10 -12q-18 -12 -68 -49l27 22q-2 -2 -4 -2q-33 -16 -72 -16q-16 0 -35 4h-2q-31 6 -88 45q-33 45 -43 72q-22 43 -4 96zM328 1059q-2 -16 30 -76 q16 -20 56 -41l2 -2h4q25 -10 51 -10q25 0 51 8q80 37 74 117l-2 28q-2 4 -19 41v2q-2 0 -2 2v-4q-25 37 -51 60l-4 2q-8 0 -16 8t-51 35q18 -16 30 -29l8 -6q-12 2 -69 -4q-4 -2 -10 -2q-33 -14 -66 -53q-16 -33 -16 -64q4 -6 0 -12zM334 1329q0 29 18 29q23 0 39 -29 l6 -10l2 -4l11 -23v-6q6 -6 6 -16q0 -8 -6.5 -15.5t-12.5 -7.5q-8 0 -12 13l-2 2q-12 47 -31 65l-4 2h-14zM424 729q0 45 8 84q0 2 2 2v6q2 4 10 17q18 4 27 -15q-6 -31 -20 -94l-13 -6q2 0 6 -2q-14 -6 -20 8zM539 1257q0 6 2 11l2 4q12 25 63 74l25 -5q-10 -12 -25 -34 q-23 -27 -37 -52q-10 -12 -24 -18q-6 12 -6 20zM604 850q0 18 14 18q16 -4 28 -17l22 -26l8 -10q4 0 4 -4q31 -31 39 -66q-23 0 -43 27l-17 16q-20 19 -55 62zM657 1153q8 18 21 29q29 16 104 39q4 -18 -4 -27l6 2l-8 -4q-2 0 -4 -2h-2l-76 -35q-4 -6 -14 -6q-11 0 -23 4z M674 979q10 25 22 25v-3l6 3q12 0 76 -13q27 -6 68 -30q-23 -8 -35 -9q-8 0 -12 4q-76 15 -125 23z" />
</font>
</defs>
</svg>
